  0
SECTION
  2
HEADER
  9
$ACADVER
  1
AC1018
  9
$ACADMAINTVER
 70
     0
  9
$DWGCODEPAGE
  3
ANSI_1252
  9
$INSBASE
 10
0.0
 20
0.0
 30
0.0
  9
$EXTMIN
 10
-98.59999995234028
 20
321.1441690864432
 30
0.0
  9
$EXTMAX
 10
198.4000000476578
 20
531.1441690864433
 30
0.0
  9
$LIMMIN
 10
0.0
 20
0.0
  9
$LIMMAX
 10
12.0
 20
9.0
  9
$ORTHOMODE
 70
     0
  9
$REGENMODE
 70
     1
  9
$FILLMODE
 70
     1
  9
$QTEXTMODE
 70
     0
  9
$MIRRTEXT
 70
     1
  9
$LTSCALE
 40
1.0
  9
$ATTMODE
 70
     1
  9
$TEXTSIZE
 40
0.2
  9
$TRACEWID
 40
0.05
  9
$TEXTSTYLE
  7
Standard
  9
$CLAYER
  8
0
  9
$CELTYPE
  6
ByLayer
  9
$CECOLOR
 62
   256
  9
$CELTSCALE
 40
1.0
  9
$DISPSILH
 70
     0
  9
$DIMSCALE
 40
1.0
  9
$DIMASZ
 40
0.18
  9
$DIMEXO
 40
0.0625
  9
$DIMDLI
 40
0.38
  9
$DIMRND
 40
0.0
  9
$DIMDLE
 40
0.0
  9
$DIMEXE
 40
0.18
  9
$DIMTP
 40
0.0
  9
$DIMTM
 40
0.0
  9
$DIMTXT
 40
0.18
  9
$DIMCEN
 40
0.09
  9
$DIMTSZ
 40
0.0
  9
$DIMTOL
 70
     0
  9
$DIMLIM
 70
     0
  9
$DIMTIH
 70
     1
  9
$DIMTOH
 70
     1
  9
$DIMSE1
 70
     0
  9
$DIMSE2
 70
     0
  9
$DIMTAD
 70
     0
  9
$DIMZIN
 70
     0
  9
$DIMBLK
  1

  9
$DIMASO
 70
     1
  9
$DIMSHO
 70
     1
  9
$DIMPOST
  1

  9
$DIMAPOST
  1

  9
$DIMALT
 70
     0
  9
$DIMALTD
 70
     2
  9
$DIMALTF
 40
25.4
  9
$DIMLFAC
 40
1.0
  9
$DIMTOFL
 70
     0
  9
$DIMTVP
 40
0.0
  9
$DIMTIX
 70
     0
  9
$DIMSOXD
 70
     0
  9
$DIMSAH
 70
     0
  9
$DIMBLK1
  1

  9
$DIMBLK2
  1

  9
$DIMSTYLE
  2
Standard
  9
$DIMCLRD
 70
     0
  9
$DIMCLRE
 70
     0
  9
$DIMCLRT
 70
     0
  9
$DIMTFAC
 40
1.0
  9
$DIMGAP
 40
0.09
  9
$DIMJUST
 70
     0
  9
$DIMSD1
 70
     0
  9
$DIMSD2
 70
     0
  9
$DIMTOLJ
 70
     1
  9
$DIMTZIN
 70
     0
  9
$DIMALTZ
 70
     0
  9
$DIMALTTZ
 70
     0
  9
$DIMUPT
 70
     0
  9
$DIMDEC
 70
     4
  9
$DIMTDEC
 70
     4
  9
$DIMALTU
 70
     2
  9
$DIMALTTD
 70
     2
  9
$DIMTXSTY
  7
Standard
  9
$DIMAUNIT
 70
     0
  9
$DIMADEC
 70
     0
  9
$DIMALTRND
 40
0.0
  9
$DIMAZIN
 70
     0
  9
$DIMDSEP
 70
    46
  9
$DIMATFIT
 70
     3
  9
$DIMFRAC
 70
     0
  9
$DIMLDRBLK
  1

  9
$DIMLUNIT
 70
     2
  9
$DIMLWD
 70
    -2
  9
$DIMLWE
 70
    -2
  9
$DIMTMOVE
 70
     0
  9
$LUNITS
 70
     2
  9
$LUPREC
 70
     4
  9
$SKETCHINC
 40
0.1
  9
$FILLETRAD
 40
0.5
  9
$AUNITS
 70
     0
  9
$AUPREC
 70
     0
  9
$MENU
  1
.
  9
$ELEVATION
 40
0.0
  9
$PELEVATION
 40
0.0
  9
$THICKNESS
 40
0.0
  9
$LIMCHECK
 70
     0
  9
$CHAMFERA
 40
0.5
  9
$CHAMFERB
 40
0.5
  9
$CHAMFERC
 40
1.0
  9
$CHAMFERD
 40
0.0
  9
$SKPOLY
 70
     0
  9
$TDCREATE
 40
2458198.295683032
  9
$TDUCREATE
 40
2458198.254016366
  9
$TDUPDATE
 40
2458198.295683576
  9
$TDUUPDATE
 40
2458198.25401691
  9
$TDINDWG
 40
0.0000000116
  9
$TDUSRTIMER
 40
0.0000000116
  9
$USRTIMER
 70
     1
  9
$ANGBASE
 50
0.0
  9
$ANGDIR
 70
     0
  9
$PDMODE
 70
     0
  9
$PDSIZE
 40
0.0
  9
$PLINEWID
 40
0.0
  9
$SPLFRAME
 70
     0
  9
$SPLINETYPE
 70
     6
  9
$SPLINESEGS
 70
     8
  9
$HANDSEED
  5
272
  9
$SURFTAB1
 70
     6
  9
$SURFTAB2
 70
     6
  9
$SURFTYPE
 70
     6
  9
$SURFU
 70
     6
  9
$SURFV
 70
     6
  9
$UCSBASE
  2

  9
$UCSNAME
  2

  9
$UCSORG
 10
0.0
 20
0.0
 30
0.0
  9
$UCSXDIR
 10
1.0
 20
0.0
 30
0.0
  9
$UCSYDIR
 10
0.0
 20
1.0
 30
0.0
  9
$UCSORTHOREF
  2

  9
$UCSORTHOVIEW
 70
     0
  9
$UCSORGTOP
 10
0.0
 20
0.0
 30
0.0
  9
$UCSORGBOTTOM
 10
0.0
 20
0.0
 30
0.0
  9
$UCSORGLEFT
 10
0.0
 20
0.0
 30
0.0
  9
$UCSORGRIGHT
 10
0.0
 20
0.0
 30
0.0
  9
$UCSORGFRONT
 10
0.0
 20
0.0
 30
0.0
  9
$UCSORGBACK
 10
0.0
 20
0.0
 30
0.0
  9
$PUCSBASE
  2

  9
$PUCSNAME
  2

  9
$PUCSORG
 10
0.0
 20
0.0
 30
0.0
  9
$PUCSXDIR
 10
1.0
 20
0.0
 30
0.0
  9
$PUCSYDIR
 10
0.0
 20
1.0
 30
0.0
  9
$PUCSORTHOREF
  2

  9
$PUCSORTHOVIEW
 70
     0
  9
$PUCSORGTOP
 10
0.0
 20
0.0
 30
0.0
  9
$PUCSORGBOTTOM
 10
0.0
 20
0.0
 30
0.0
  9
$PUCSORGLEFT
 10
0.0
 20
0.0
 30
0.0
  9
$PUCSORGRIGHT
 10
0.0
 20
0.0
 30
0.0
  9
$PUCSORGFRONT
 10
0.0
 20
0.0
 30
0.0
  9
$PUCSORGBACK
 10
0.0
 20
0.0
 30
0.0
  9
$USERI1
 70
     0
  9
$USERI2
 70
     0
  9
$USERI3
 70
     0
  9
$USERI4
 70
     0
  9
$USERI5
 70
     0
  9
$USERR1
 40
18.1
  9
$USERR2
 40
0.0
  9
$USERR3
 40
0.0
  9
$USERR4
 40
0.0
  9
$USERR5
 40
0.0
  9
$WORLDVIEW
 70
     1
  9
$SHADEDGE
 70
     3
  9
$SHADEDIF
 70
    70
  9
$TILEMODE
 70
     1
  9
$MAXACTVP
 70
    64
  9
$PINSBASE
 10
0.0
 20
0.0
 30
0.0
  9
$PLIMCHECK
 70
     0
  9
$PEXTMIN
 10
1.00000000000000E+20
 20
1.00000000000000E+20
 30
1.00000000000000E+20
  9
$PEXTMAX
 10
-1.00000000000000E+20
 20
-1.00000000000000E+20
 30
-1.00000000000000E+20
  9
$PLIMMIN
 10
0.0
 20
0.0
  9
$PLIMMAX
 10
12.0
 20
9.0
  9
$UNITMODE
 70
     0
  9
$VISRETAIN
 70
     1
  9
$PLINEGEN
 70
     0
  9
$PSLTSCALE
 70
     1
  9
$TREEDEPTH
 70
  3020
  9
$CMLSTYLE
  2
Standard
  9
$CMLJUST
 70
     0
  9
$CMLSCALE
 40
1.0
  9
$PROXYGRAPHICS
 70
     1
  9
$MEASUREMENT
 70
     1
  9
$CELWEIGHT
370
    -1
  9
$ENDCAPS
280
     0
  9
$JOINSTYLE
280
     0
  9
$LWDISPLAY
290
     0
  9
$INSUNITS
 70
     4
  9
$HYPERLINKBASE
  1

  9
$STYLESHEET
  1

  9
$XEDIT
290
     1
  9
$CEPSNTYPE
380
     0
  9
$PSTYLEMODE
290
     1
  9
$FINGERPRINTGUID
  2
{460CD3B1-68A7-4581-BAF7-C282E8D4DF5C}
  9
$VERSIONGUID
  2
{FAEB1C32-E019-11D5-929B-00C0DF256EC4}
  9
$EXTNAMES
290
     1
  9
$PSVPSCALE
 40
0.0
  9
$OLESTARTUP
290
     0
  9
$SORTENTS
280
   127
  9
$INDEXCTL
280
     0
  9
$HIDETEXT
280
     1
  9
$XCLIPFRAME
290
     0
  9
$HALOGAP
280
     0
  9
$OBSCOLOR
 70
   257
  9
$OBSLTYPE
280
     0
  9
$INTERSECTIONDISPLAY
280
     0
  9
$INTERSECTIONCOLOR
 70
   257
  9
$DIMASSOC
280
     2
  9
$PROJECTNAME
  1

  0
ENDSEC
  0
SECTION
  2
CLASSES
  0
CLASS
  1
ACDBDICTIONARYWDFLT
  2
AcDbDictionaryWithDefault
  3
ObjectDBX Classes
 90
        0
 91
        4
280
     0
281
     0
  0
CLASS
  1
VISUALSTYLE
  2
AcDbVisualStyle
  3
ObjectDBX Classes
 90
     4095
 91
        4
280
     0
281
     0
  0
CLASS
  1
MATERIAL
  2
AcDbMaterial
  3
ObjectDBX Classes
 90
     1153
 91
        4
280
     0
281
     0
  0
ENDSEC
  0
SECTION
  2
TABLES
  0
TABLE
  2
VPORT
  5
8
330
0
100
AcDbSymbolTable
 70
     1
  0
VPORT
  5
29
330
8
100
AcDbSymbolTableRecord
100
AcDbViewportTableRecord
  2
*Active
 70
     0
 10
0.0
 20
0.0
 11
1.0
 21
1.0
 12
49.90000004765876
 22
426.1441690864432
 13
0.0
 23
0.0
 14
0.5
 24
0.5
 15
0.5
 25
0.5
 16
0.0
 26
0.0
 36
1.0
 17
0.0
 27
0.0
 37
0.0
 40
231.0000000000001
 41
1.60267857142857
 42
50.0
 43
0.0
 44
0.0
 50
0.0
 51
0.0
 71
     0
 72
   100
 73
     1
 74
     3
 75
     0
 76
     0
 77
     0
 78
     0
281
     0
 65
     1
110
0.0
120
0.0
130
0.0
111
1.0
121
0.0
131
0.0
112
0.0
122
1.0
132
0.0
 79
     0
146
0.0
  0
ENDTAB
  0
TABLE
  2
LTYPE
  5
5
330
0
100
AcDbSymbolTable
 70
     8
  0
LTYPE
  5
14
330
5
100
AcDbSymbolTableRecord
100
AcDbLinetypeTableRecord
  2
ByBlock
 70
     0
  3

 72
    65
 73
     0
 40
0.0
  0
LTYPE
  5
15
330
5
100
AcDbSymbolTableRecord
100
AcDbLinetypeTableRecord
  2
ByLayer
 70
     0
  3

 72
    65
 73
     0
 40
0.0
  0
LTYPE
  5
16
330
5
100
AcDbSymbolTableRecord
100
AcDbLinetypeTableRecord
  2
Continuous
 70
     0
  3
Solid line
 72
    65
 73
     0
 40
0.0
  0
LTYPE
  5
3F
330
5
100
AcDbSymbolTableRecord
100
AcDbLinetypeTableRecord
  2
DASHED
 70
     0
  3
Dashed
 72
    65
 73
     2
 40
15.0
 49
7.0
 74
     0
 49
-8.0
 74
     0
  0
LTYPE
  5
40
330
5
100
AcDbSymbolTableRecord
100
AcDbLinetypeTableRecord
  2
DOTTED
 70
     0
  3
Dotted
 72
    65
 73
     2
 40
1.0
 49
0.0
 74
     0
 49
-1.0
 74
     0
  0
LTYPE
  5
41
330
5
100
AcDbSymbolTableRecord
100
AcDbLinetypeTableRecord
  2
DOT_CENTER
 70
     0
  3
Dot_Center
 72
    65
 73
     4
 40
14.0
 49
12.0
 74
     0
 49
-1.0
 74
     0
 49
0.0
 74
     0
 49
-1.0
 74
     0
  0
LTYPE
  5
42
330
5
100
AcDbSymbolTableRecord
100
AcDbLinetypeTableRecord
  2
LONG_DASHED
 70
     0
  3
Long_Dashed
 72
    65
 73
     2
 40
15.0
 49
10.0
 74
     0
 49
-5.0
 74
     0
  0
LTYPE
  5
43
330
5
100
AcDbSymbolTableRecord
100
AcDbLinetypeTableRecord
  2
DASH_CENTER
 70
     0
  3
Dash_Center
 72
    65
 73
     4
 40
14.0
 49
11.0
 74
     0
 49
-1.0
 74
     0
 49
1.0
 74
     0
 49
-1.0
 74
     0
  0
LTYPE
  5
44
330
5
100
AcDbSymbolTableRecord
100
AcDbLinetypeTableRecord
  2
PHANTOM
 70
     0
  3
Phantom
 72
    65
 73
     6
 40
13.0
 49
10.0
 74
     0
 49
-1.0
 74
     0
 49
0.0
 74
     0
 49
-1.0
 74
     0
 49
0.0
 74
     0
 49
-1.0
 74
     0
  0
LTYPE
  5
45
330
5
100
AcDbSymbolTableRecord
100
AcDbLinetypeTableRecord
  2
CENTER_DASH_DASH
 70
     0
  3
Center_Dash_Dash
 72
    65
 73
     6
 40
14.0
 49
9.0
 74
     0
 49
-1.0
 74
     0
 49
1.0
 74
     0
 49
-1.0
 74
     0
 49
1.0
 74
     0
 49
-1.0
 74
     0
  0
ENDTAB
  0
TABLE
  2
LAYER
  5
2
330
0
100
AcDbSymbolTable
 70
     2
  0
LAYER
  5
10
330
2
100
AcDbSymbolTableRecord
100
AcDbLayerTableRecord
  2
0
 70
     0
 62
     7
  6
Continuous
370
    -3
390
F
  0
LAYER
  5
46
330
2
100
AcDbSymbolTableRecord
100
AcDbLayerTableRecord
  2
1
 70
     0
 62
     7
  6
Continuous
370
    -3
390
F
  0
ENDTAB
  0
TABLE
  2
STYLE
  5
3
330
0
100
AcDbSymbolTable
 70
     5
  0
STYLE
  5
11
330
3
100
AcDbSymbolTableRecord
100
AcDbTextStyleTableRecord
  2
Standard
 70
     0
 40
0.0
 41
1.0
 50
0.0
 71
     0
 42
0.2
  3
txt
  4

  0
STYLE
  5
A3
330
3
100
AcDbSymbolTableRecord
100
AcDbTextStyleTableRecord
  2
CONVERTER_11
 70
     0
 40
0.0
 41
0.9
 50
0.0
 71
     0
 42
0.2
  3
txt.shx
  4

  0
STYLE
  5
208
330
3
100
AcDbSymbolTableRecord
100
AcDbTextStyleTableRecord
  2
CONVERTER_12
 70
     0
 40
0.0
 41
0.81
 50
0.0
 71
     0
 42
0.2
  3
txt.shx
  4

  0
STYLE
  5
20E
330
3
100
AcDbSymbolTableRecord
100
AcDbTextStyleTableRecord
  2
CONVERTER_13
 70
     0
 40
0.0
 41
0.855
 50
0.0
 71
     0
 42
0.2
  3
txt.shx
  4

  0
STYLE
  5
211
330
3
100
AcDbSymbolTableRecord
100
AcDbTextStyleTableRecord
  2
CONVERTER_14
 70
     0
 40
0.0
 41
0.72
 50
0.0
 71
     0
 42
0.2
  3
txt.shx
  4

  0
ENDTAB
  0
TABLE
  2
VIEW
  5
6
330
0
100
AcDbSymbolTable
 70
     0
  0
ENDTAB
  0
TABLE
  2
UCS
  5
7
330
0
100
AcDbSymbolTable
 70
     0
  0
ENDTAB
  0
TABLE
  2
APPID
  5
9
330
0
100
AcDbSymbolTable
 70
     1
  0
APPID
  5
12
330
9
100
AcDbSymbolTableRecord
100
AcDbRegAppTableRecord
  2
ACAD
 70
     0
  0
ENDTAB
  0
TABLE
  2
DIMSTYLE
  5
A
330
0
100
AcDbSymbolTable
 70
     4
100
AcDbDimStyleTable
  0
DIMSTYLE
105
27
330
A
100
AcDbSymbolTableRecord
100
AcDbDimStyleTableRecord
  2
Standard
 70
     0
178
     0
340
11
  0
DIMSTYLE
105
BB
102
{ACAD_REACTORS
330
BC
102
}
330
A
100
AcDbSymbolTableRecord
100
AcDbDimStyleTableRecord
  2
ME10_DIM_10
 70
     0
 41
3.5
 42
0.0
 44
1.5
 73
     0
 74
     0
 77
     1
 78
     8
140
3.5
147
1.5
172
     1
173
     1
174
     1
175
     1
176
     2
177
     2
178
     3
340
A3
  0
DIMSTYLE
105
104
102
{ACAD_REACTORS
330
105
102
}
330
A
100
AcDbSymbolTableRecord
100
AcDbDimStyleTableRecord
  2
ME10_DIM_11
 70
     0
 41
3.5
 42
0.0
 44
1.5
 73
     0
 74
     0
 77
     1
 78
     8
140
3.5
147
1.5
172
     1
173
     1
174
     1
175
     1
176
     2
177
     2
271
     1
178
     3
271
     1
340
A3
  0
DIMSTYLE
105
10F
102
{ACAD_REACTORS
330
110
102
}
330
A
100
AcDbSymbolTableRecord
100
AcDbDimStyleTableRecord
  2
ME10_DIM_12
 70
     0
 41
3.5
 42
0.0
 44
1.5
 73
     0
 74
     0
 77
     1
 78
     8
140
3.5
147
1.5
172
     1
173
     1
174
     1
175
     1
176
     2
177
     2
271
     1
178
     3
271
     1
340
A3
  0
ENDTAB
  0
TABLE
  2
BLOCK_RECORD
  5
1
330
0
100
AcDbSymbolTable
 70
    20
  0
BLOCK_RECORD
  5
1F
330
1
100
AcDbSymbolTableRecord
100
AcDbBlockTableRecord
  2
*Model_Space
340
22
  0
BLOCK_RECORD
  5
1B
330
1
100
AcDbSymbolTableRecord
100
AcDbBlockTableRecord
  2
*Paper_Space
340
1E
  0
BLOCK_RECORD
  5
23
330
1
100
AcDbSymbolTableRecord
100
AcDbBlockTableRecord
  2
*Paper_Space0
340
26
  0
BLOCK_RECORD
  5
47
330
1
100
AcDbSymbolTableRecord
100
AcDbBlockTableRecord
  2
d-sts_25-select__1
340
0
102
{BLKREFS
331
4B
102
}
  0
BLOCK_RECORD
  5
4A
330
1
100
AcDbSymbolTableRecord
100
AcDbBlockTableRecord
  2
AllgSicht1
340
0
102
{BLKREFS
331
7D
102
}
  0
BLOCK_RECORD
  5
4E
330
1
100
AcDbSymbolTableRecord
100
AcDbBlockTableRecord
  2
d-sts_25-select__2
340
0
102
{BLKREFS
331
52
102
}
  0
BLOCK_RECORD
  5
51
330
1
100
AcDbSymbolTableRecord
100
AcDbBlockTableRecord
  2
Drfsicht1
340
0
102
{BLKREFS
331
7E
102
}
  0
BLOCK_RECORD
  5
55
330
1
100
AcDbSymbolTableRecord
100
AcDbBlockTableRecord
  2
d-sts_25-select__3
340
0
102
{BLKREFS
331
59
102
}
  0
BLOCK_RECORD
  5
58
330
1
100
AcDbSymbolTableRecord
100
AcDbBlockTableRecord
  2
Rckans1
340
0
102
{BLKREFS
331
7F
102
}
  0
BLOCK_RECORD
  5
5C
330
1
100
AcDbSymbolTableRecord
100
AcDbBlockTableRecord
  2
d-sts_25-select__4
340
0
102
{BLKREFS
331
60
102
}
  0
BLOCK_RECORD
  5
5F
330
1
100
AcDbSymbolTableRecord
100
AcDbBlockTableRecord
  2
SA_Links1
340
0
102
{BLKREFS
331
80
102
}
  0
BLOCK_RECORD
  5
63
330
1
100
AcDbSymbolTableRecord
100
AcDbBlockTableRecord
  2
d-sts_25-select__5
340
0
102
{BLKREFS
331
67
102
}
  0
BLOCK_RECORD
  5
66
330
1
100
AcDbSymbolTableRecord
100
AcDbBlockTableRecord
  2
SA_Rechts1
340
0
102
{BLKREFS
331
81
102
}
  0
BLOCK_RECORD
  5
6A
330
1
100
AcDbSymbolTableRecord
100
AcDbBlockTableRecord
  2
d-sts_25-select__6
340
0
102
{BLKREFS
331
6E
102
}
  0
BLOCK_RECORD
  5
6D
330
1
100
AcDbSymbolTableRecord
100
AcDbBlockTableRecord
  2
Vordans1
340
0
102
{BLKREFS
331
82
102
}
  0
BLOCK_RECORD
  5
71
330
1
100
AcDbSymbolTableRecord
100
AcDbBlockTableRecord
  2
_rahmen
340
0
102
{BLKREFS
331
78
102
}
  0
BLOCK_RECORD
  5
74
330
1
100
AcDbSymbolTableRecord
100
AcDbBlockTableRecord
  2
_punkt
340
0
102
{BLKREFS
331
79
102
}
  0
BLOCK_RECORD
  5
77
330
1
100
AcDbSymbolTableRecord
100
AcDbBlockTableRecord
  2
A4I_CS
340
0
102
{BLKREFS
331
83
102
}
  0
BLOCK_RECORD
  5
7C
330
1
100
AcDbSymbolTableRecord
100
AcDbBlockTableRecord
  2
1
340
0
102
{BLKREFS
331
86
102
}
  0
BLOCK_RECORD
  5
B0
330
1
100
AcDbSymbolTableRecord
100
AcDbBlockTableRecord
  2
*D17
340
0
  0
BLOCK_RECORD
  5
FB
330
1
100
AcDbSymbolTableRecord
100
AcDbBlockTableRecord
  2
*D18
340
0
  0
BLOCK_RECORD
  5
106
330
1
100
AcDbSymbolTableRecord
100
AcDbBlockTableRecord
  2
*D19
340
0
  0
ENDTAB
  0
ENDSEC
  0
SECTION
  2
BLOCKS
  0
BLOCK
  5
20
330
1F
100
AcDbEntity
  8
0
100
AcDbBlockBegin
  2
*Model_Space
 70
     0
 10
0.0
 20
0.0
 30
0.0
  3
*Model_Space
  1

  0
ENDBLK
  5
21
330
1F
100
AcDbEntity
  8
0
100
AcDbBlockEnd
  0
BLOCK
  5
1C
330
1B
100
AcDbEntity
 67
     1
  8
0
100
AcDbBlockBegin
  2
*Paper_Space
 70
     0
 10
0.0
 20
0.0
 30
0.0
  3
*Paper_Space
  1

  0
ENDBLK
  5
1D
330
1B
100
AcDbEntity
 67
     1
  8
0
100
AcDbBlockEnd
  0
BLOCK
  5
24
330
23
100
AcDbEntity
  8
0
100
AcDbBlockBegin
  2
*Paper_Space0
 70
     0
 10
0.0
 20
0.0
 30
0.0
  3
*Paper_Space0
  1

  0
ENDBLK
  5
25
330
23
100
AcDbEntity
  8
0
100
AcDbBlockEnd
  0
BLOCK
  5
48
330
47
100
AcDbEntity
  8
0
100
AcDbBlockBegin
  2
d-sts_25-select__1
 70
     0
 10
115.2529573514256
 20
382.2877239685635
 30
0.0
  3
d-sts_25-select__1
  1

  0
LINE
  5
87
330
47
100
AcDbEntity
  8
0
  6
Continuous
 62
     7
100
AcDbLine
 10
132.4721170924455
 20
420.1882916706126
 30
0.0
 11
142.0278881226544
 21
417.4297781823098
 31
0.0
  0
LINE
  5
88
330
47
100
AcDbEntity
  8
0
  6
Continuous
 62
     7
100
AcDbLine
 10
132.4721170924455
 20
420.1882916706126
 30
0.0
 11
133.5721170924455
 21
421.1409196147754
 31
0.0
  0
LINE
  5
89
330
47
100
AcDbEntity
  8
0
  6
Continuous
 62
     7
100
AcDbLine
 10
143.1278881226544
 20
418.3824061264726
 30
0.0
 11
142.0278881226544
 21
417.4297781823098
 31
0.0
  0
LINE
  5
8A
330
47
100
AcDbEntity
  8
0
  6
Continuous
 62
     7
100
AcDbLine
 10
143.1278881226544
 20
418.3824061264726
 30
0.0
 11
133.5721170924455
 21
421.1409196147754
 31
0.0
  0
LINE
  5
8B
330
47
100
AcDbEntity
  8
0
  6
Continuous
 62
     7
100
AcDbLine
 10
118.2696216010154
 20
393.7175022145926
 30
0.0
 11
119.2469249268785
 21
398.977941629683
 31
0.0
  0
LINE
  5
8C
330
47
100
AcDbEntity
  8
0
  6
Continuous
 62
     7
100
AcDbLine
 10
115.2529573514256
 20
400.1309007570943
 30
0.0
 11
119.2469249268785
 21
398.977941629683
 31
0.0
  0
LINE
  5
8D
330
47
100
AcDbEntity
  8
0
  6
Continuous
 62
     7
100
AcDbLine
 10
115.2529573514256
 20
400.1309007570943
 30
0.0
 11
115.2529573514256
 21
401.5165414031451
 31
0.0
  0
LINE
  5
8E
330
47
100
AcDbEntity
  8
0
  6
Continuous
 62
     7
100
AcDbLine
 10
115.2529573514256
 20
418.8917733216549
 30
0.0
 11
115.2529573514256
 21
409.3107700372035
 31
0.0
  0
LINE
  5
8F
330
47
100
AcDbEntity
  8
0
  6
Continuous
 62
     7
100
AcDbLine
 10
159.2470478636743
 20
406.1917733216551
 30
0.0
 11
142.0278881226544
 21
417.4297781823098
 31
0.0
  0
LINE
  5
90
330
47
100
AcDbEntity
  8
0
  6
Continuous
 62
     7
100
AcDbLine
 10
160.3470478636742
 20
407.144401265818
 30
0.0
 11
143.1278881226544
 21
418.3824061264726
 31
0.0
  0
LINE
  5
91
330
47
100
AcDbEntity
  8
0
  6
Continuous
 62
     7
100
AcDbLine
 10
116.3529573514256
 20
419.8444012658177
 30
0.0
 11
115.2529573514256
 21
418.8917733216549
 31
0.0
  0
LINE
  5
92
330
47
100
AcDbEntity
  8
0
  6
Continuous
 62
     7
100
AcDbLine
 10
115.2529573514256
 20
418.8917733216549
 30
0.0
 11
132.4721170924455
 21
420.1882916706126
 31
0.0
  0
LINE
  5
93
330
47
100
AcDbEntity
  8
0
  6
Continuous
 62
     7
100
AcDbLine
 10
133.5721170924455
 20
421.1409196147754
 30
0.0
 11
116.3529573514256
 21
419.8444012658177
 31
0.0
  0
LINE
  5
94
330
47
100
AcDbEntity
  8
0
  6
Continuous
 62
     7
100
AcDbLine
 10
160.3470478636743
 20
397.5633979813678
 30
0.0
 11
160.3470478636742
 21
407.144401265818
 31
0.0
  0
LINE
  5
95
330
47
100
AcDbEntity
  8
0
  6
Continuous
 62
     7
100
AcDbLine
 10
160.3470478636742
 20
407.144401265818
 30
0.0
 11
159.2470478636743
 21
406.1917733216551
 31
0.0
  0
LINE
  5
96
330
47
100
AcDbEntity
  8
0
  6
Continuous
 62
     7
100
AcDbLine
 10
160.3470478636742
 20
385.4390423283867
 30
0.0
 11
160.3470478636742
 21
387.1710931359546
 31
0.0
  0
LINE
  5
97
330
47
100
AcDbEntity
  8
0
  6
Continuous
 62
     7
100
AcDbLine
 10
159.2470478636743
 20
386.2184651917917
 30
0.0
 11
160.3470478636742
 21
387.1710931359546
 31
0.0
  0
LINE
  5
98
330
47
100
AcDbEntity
  8
0
  6
Continuous
 62
     7
100
AcDbLine
 10
160.3470478636743
 20
397.5633979813678
 30
0.0
 11
159.2470478636743
 21
396.6107700372049
 31
0.0
  0
LINE
  5
99
330
47
100
AcDbEntity
  8
0
  6
Continuous
 62
     7
100
AcDbLine
 10
159.2470478636743
 20
406.1917733216551
 30
0.0
 11
159.2470478636743
 21
396.6107700372049
 31
0.0
  0
LINE
  5
9A
330
47
100
AcDbEntity
  8
0
  6
Continuous
 62
     7
100
AcDbLine
 10
158.9635348837513
 20
383.2403519127264
 30
0.0
 11
160.3470478636742
 21
385.4390423283867
 31
0.0
  0
LINE
  5
9B
330
47
100
AcDbEntity
  8
0
  6
Continuous
 62
     7
100
AcDbLine
 10
159.2470478636743
 20
384.4864143842239
 30
0.0
 11
160.3470478636742
 21
385.4390423283867
 31
0.0
  0
LINE
  5
9C
330
47
100
AcDbEntity
  8
0
  6
Continuous
 62
     7
100
AcDbLine
 10
159.2470478636743
 20
386.2184651917917
 30
0.0
 11
159.2470478636743
 21
384.4864143842239
 31
0.0
  0
LINE
  5
9D
330
47
100
AcDbEntity
  8
0
  6
Continuous
 62
     7
100
AcDbLine
 10
157.8635348837513
 20
382.2877239685635
 30
0.0
 11
159.2470478636743
 21
384.4864143842239
 31
0.0
  0
LINE
  5
9E
330
47
100
AcDbEntity
  8
0
  6
Continuous
 62
     7
100
AcDbLine
 10
158.9635348837513
 20
383.2403519127264
 30
0.0
 11
157.8635348837513
 21
382.2877239685635
 31
0.0
  0
LINE
  5
9F
330
47
100
AcDbEntity
  8
0
  6
Continuous
 62
     7
100
AcDbLine
 10
157.8635348837513
 20
382.2877239685635
 30
0.0
 11
118.2696216010154
 21
393.7175022145926
 31
0.0
  0
SPLINE
  5
A0
330
47
100
AcDbEntity
  8
0
  6
Continuous
 62
     7
100
AcDbSpline
210
0.0
220
0.0
230
1.0
 70
     8
 71
     3
 72
    11
 73
     7
 74
     5
 42
0.000000001
 43
0.0000000001
 44
0.00000001
 40
0.0
 40
0.0
 40
0.0
 40
0.0
 40
1.851422095562977
 40
3.785240840660894
 40
5.80567470265138
 40
7.908935340358875
 40
7.908935340358875
 40
7.908935340358875
 40
7.908935340358875
 10
115.2529573514256
 20
401.5165414031451
 30
0.0
 10
115.4237990435595
 20
402.1112574975249
 30
0.0
 10
115.7730856405156
 20
403.3271572434177
 30
0.0
 10
115.8944189056241
 20
405.2708002853991
 30
0.0
 10
115.7564579002591
 20
407.293148498785
 30
0.0
 10
115.4230232813303
 20
408.6292838431233
 30
0.0
 10
115.2529573514256
 20
409.3107700372035
 30
0.0
 11
115.2529573514256
 21
401.5165414031451
 31
0.0
 11
115.7008463888069
 21
403.3129709704434
 31
0.0
 11
115.8513046767976
 21
405.2409277254881
 31
0.0
 11
115.7008463888069
 21
407.255751613606
 31
0.0
 11
115.2529573514256
 21
409.3107700372035
 31
0.0
  0
SPLINE
  5
A1
330
47
100
AcDbEntity
  8
0
  6
Continuous
 62
     7
100
AcDbSpline
210
0.0
220
0.0
230
1.0
 70
     8
 71
     3
 72
    13
 73
     9
 74
     7
 42
0.000000001
 43
0.0000000001
 44
0.00000001
 40
0.0
 40
0.0
 40
0.0
 40
0.0
 40
1.618800875634772
 40
3.296662960634716
 40
5.042045806819289
 40
6.857713221235877
 40
8.74115751454751
 40
10.68531582206928
 40
10.68531582206928
 40
10.68531582206928
 40
10.68531582206928
 10
160.3470478636743
 20
397.5633979813678
 30
0.0
 10
160.1301411766526
 20
397.0679772792111
 30
0.0
 10
159.6884140750075
 20
396.0590606718218
 30
0.0
 10
159.3427921691909
 20
394.4033451495891
 30
0.0
 10
159.2203399238909
 20
392.6569158584618
 30
0.0
 10
159.3512528511279
 20
390.8417508575203
 30
0.0
 10
159.7082440836149
 20
388.988202501931
 30
0.0
 10
160.1318733749282
 20
387.7831677379726
 30
0.0
 10
160.3470478636742
 20
387.1710931359546
 30
0.0
 11
160.3470478636743
 21
397.5633979813678
 31
0.0
 11
159.7483494130616
 21
396.0593778865033
 31
0.0
 11
159.3845712223529
 21
394.4214259300308
 31
0.0
 11
159.2625477783101
 21
392.6803137667717
 31
0.0
 11
159.3845712223529
 21
390.8687513352471
 31
0.0
 11
159.7483494130615
 21
389.0207719424437
 31
0.0
 11
160.3470478636742
 21
387.1710931359546
 31
0.0
  0
SPLINE
  5
A2
330
47
100
AcDbEntity
  8
0
  6
Continuous
 62
     7
100
AcDbSpline
210
0.0
220
0.0
230
1.0
 70
     8
 71
     3
 72
    13
 73
     9
 74
     7
 42
0.000000001
 43
0.0000000001
 44
0.00000001
 40
0.0
 40
0.0
 40
0.0
 40
0.0
 40
1.618800875634782
 40
3.296662960634616
 40
5.042045806819136
 40
6.857713221235784
 40
8.741157514547423
 40
10.68531582206929
 40
10.68531582206929
 40
10.68531582206929
 40
10.68531582206929
 10
159.2470478636743
 20
396.6107700372049
 30
0.0
 10
159.0301411766526
 20
396.1153493350482
 30
0.0
 10
158.5884140750074
 20
395.1064327276588
 30
0.0
 10
158.2427921691909
 20
393.4507172054263
 30
0.0
 10
158.1203399238908
 20
391.704287914299
 30
0.0
 10
158.251252851128
 20
389.8891229133576
 30
0.0
 10
158.6082440836148
 20
388.0355745577681
 30
0.0
 10
159.0318733749283
 20
386.8305397938097
 30
0.0
 10
159.2470478636743
 20
386.2184651917917
 30
0.0
 11
159.2470478636743
 21
396.6107700372049
 31
0.0
 11
158.6483494130615
 21
395.1067499423403
 31
0.0
 11
158.2845712223529
 21
393.4687979858679
 31
0.0
 11
158.1625477783101
 21
391.7276858226089
 31
0.0
 11
158.2845712223529
 21
389.9161233910843
 31
0.0
 11
158.6483494130615
 21
388.0681439982809
 31
0.0
 11
159.2470478636743
 21
386.2184651917917
 31
0.0
  0
ENDBLK
  5
49
330
47
100
AcDbEntity
  8
0
100
AcDbBlockEnd
  0
BLOCK
  5
4C
330
4A
100
AcDbEntity
  8
0
100
AcDbBlockBegin
  2
AllgSicht1
 70
     0
 10
137.80000200002
 20
404.00000000003
 30
0.0
  3
AllgSicht1
  1

  0
INSERT
  5
4B
330
4A
100
AcDbEntity
  8
0
100
AcDbBlockReference
  2
d-sts_25-select__1
 10
115.2529573514256
 20
382.2877239685635
 30
0.0
  0
MTEXT
  5
A4
330
4A
100
AcDbEntity
  8
1
 62
     6
100
AcDbMText
 10
137.80000200002
 20
376.8883381492271
 30
0.0
 40
5.0
 41
0.0
 71
     2
 72
     1
  1
 
  7
CONVERTER_11
 73
     1
 44
1.32052821128451
  0
ENDBLK
  5
4D
330
4A
100
AcDbEntity
  8
0
100
AcDbBlockEnd
  0
BLOCK
  5
4F
330
4E
100
AcDbEntity
  8
0
100
AcDbBlockBegin
  2
d-sts_25-select__2
 70
     0
 10
-14.39999928468929
 20
395.8999999761581
 30
0.0
  3
d-sts_25-select__2
  1

  0
LINE
  5
A5
330
4E
100
AcDbEntity
  8
0
  6
Continuous
 62
     7
100
AcDbLine
 10
-14.39999928468929
 20
398.0999999761581
 30
0.0
 11
-14.39999928468929
 21
395.8999999761581
 31
0.0
  0
LINE
  5
A6
330
4E
100
AcDbEntity
  8
0
  6
Continuous
 62
     7
100
AcDbLine
 10
16.5170276919158
 20
398.0999999761581
 30
0.0
 11
5.4829737387047
 21
398.0999999761581
 31
0.0
  0
LINE
  5
A7
330
4E
100
AcDbEntity
  8
0
  6
Continuous
 62
     7
100
AcDbLine
 10
5.48297373870471
 20
395.8999999761581
 30
0.0
 11
16.51702769191579
 21
395.8999999761581
 31
0.0
  0
LINE
  5
A8
330
4E
100
AcDbEntity
  8
0
  6
Continuous
 62
     7
100
AcDbLine
 10
5.4829737387047
 20
398.0999999761581
 30
0.0
 11
-14.39999928468929
 21
398.0999999761581
 31
0.0
  0
LINE
  5
A9
330
4E
100
AcDbEntity
  8
0
  6
Continuous
 62
     7
100
AcDbLine
 10
16.5170276919158
 20
398.0999999761581
 30
0.0
 11
16.51702769191579
 21
395.8999999761581
 31
0.0
  0
LINE
  5
AA
330
4E
100
AcDbEntity
  8
0
  6
Continuous
 62
     7
100
AcDbLine
 10
36.40000071530979
 20
398.0999999761581
 30
0.0
 11
16.5170276919158
 21
398.0999999761581
 31
0.0
  0
LINE
  5
AB
330
4E
100
AcDbEntity
  8
0
  6
Continuous
 62
     7
100
AcDbLine
 10
36.40000071530979
 20
398.0999999761581
 30
0.0
 11
36.40000071530979
 21
395.8999999761581
 31
0.0
  0
LINE
  5
AC
330
4E
100
AcDbEntity
  8
0
  6
Continuous
 62
     7
100
AcDbLine
 10
5.48297373870471
 20
395.8999999761581
 30
0.0
 11
5.4829737387047
 21
398.0999999761581
 31
0.0
  0
LINE
  5
AD
330
4E
100
AcDbEntity
  8
0
  6
Continuous
 62
     7
100
AcDbLine
 10
-14.39999928468929
 20
395.8999999761581
 30
0.0
 11
5.48297373870471
 21
395.8999999761581
 31
0.0
  0
LINE
  5
AE
330
4E
100
AcDbEntity
  8
0
  6
Continuous
 62
     7
100
AcDbLine
 10
36.40000071530979
 20
395.8999999761581
 30
0.0
 11
16.51702769191579
 21
395.8999999761581
 31
0.0
  0
ENDBLK
  5
50
330
4E
100
AcDbEntity
  8
0
100
AcDbBlockEnd
  0
BLOCK
  5
53
330
51
100
AcDbEntity
  8
0
100
AcDbBlockBegin
  2
Drfsicht1
 70
     0
 10
11.00000000003001
 20
397.0
 30
0.0
  3
Drfsicht1
  1

  0
INSERT
  5
52
330
51
100
AcDbEntity
  8
0
100
AcDbBlockReference
  2
d-sts_25-select__2
 10
-14.39999928468929
 20
395.8999999761581
 30
0.0
  0
MTEXT
  5
AF
330
51
100
AcDbEntity
  8
1
 62
     6
100
AcDbMText
 10
11.00000000003001
 20
390.8999999761581
 30
0.0
 40
5.0
 41
0.0
 71
     2
 72
     1
  1
 
  7
CONVERTER_11
 73
     1
 44
1.32052821128451
  0
DIMENSION
  5
BC
330
51
100
AcDbEntity
  8
1
100
AcDbDimension
  2
*D17
 10
-26.6314772800939
 20
398.0999999761581
 30
0.0
 11
-30.0564772800939
 21
409.907900847791
 31
0.0
 70
    32
  1
<>
 71
     5
 42
-1.0
 53
90.0
  3
ME10_DIM_10
100
AcDbAlignedDimension
 13
-14.39999928468929
 23
395.8999999761581
 33
0.0
 14
-14.39999928468929
 24
398.0999999761581
 34
0.0
 50
90.0
100
AcDbRotatedDimension
  0
ENDBLK
  5
54
330
51
100
AcDbEntity
  8
0
100
AcDbBlockEnd
  0
BLOCK
  5
56
330
55
100
AcDbEntity
  8
0
100
AcDbBlockBegin
  2
d-sts_25-select__3
 70
     0
 10
112.4000009059416
 20
445.1000000236596
 30
0.0
  3
d-sts_25-select__3
  1

  0
LINE
  5
BD
330
55
100
AcDbEntity
  8
0
  6
Continuous
 62
     7
100
AcDbLine
 10
112.4000009059416
 20
448.1000000236596
 30
0.0
 11
112.4000009059417
 21
450.1000000236584
 31
0.0
  0
LINE
  5
BE
330
55
100
AcDbEntity
  8
0
  6
Continuous
 62
     7
100
AcDbLine
 10
143.3170278825467
 20
480.4000000236596
 30
0.0
 11
163.2000009059407
 21
473.1631896744264
 31
0.0
  0
LINE
  5
BF
330
55
100
AcDbEntity
  8
0
  6
Continuous
 62
     7
100
AcDbLine
 10
132.2829739293356
 20
480.4000000236596
 30
0.0
 11
143.3170278825467
 21
480.4000000236596
 31
0.0
  0
LINE
  5
C0
330
55
100
AcDbEntity
  8
0
  6
Continuous
 62
     7
100
AcDbLine
 10
158.588164396296
 20
451.5000000236636
 30
0.0
 11
159.7166570728299
 21
445.1000000236596
 31
0.0
  0
LINE
  5
C1
330
55
100
AcDbEntity
  8
0
  6
Continuous
 62
     7
100
AcDbLine
 10
163.2000009059407
 20
473.1631896744264
 30
0.0
 11
163.2000009059407
 21
462.100000023657
 31
0.0
  0
LINE
  5
C2
330
55
100
AcDbEntity
  8
0
  6
Continuous
 62
     7
100
AcDbLine
 10
163.2000009059407
 20
453.1000000236588
 30
0.0
 11
163.2000009059407
 21
451.5000000236636
 31
0.0
  0
LINE
  5
C3
330
55
100
AcDbEntity
  8
0
  6
Continuous
 62
     7
100
AcDbLine
 10
158.588164396296
 20
451.5000000236636
 30
0.0
 11
163.2000009059407
 21
451.5000000236636
 31
0.0
  0
LINE
  5
C4
330
55
100
AcDbEntity
  8
0
  6
Continuous
 62
     7
100
AcDbLine
 10
113.9975440887133
 20
445.1000000236596
 30
0.0
 11
112.4000009059416
 21
448.1000000236596
 31
0.0
  0
LINE
  5
C5
330
55
100
AcDbEntity
  8
0
  6
Continuous
 62
     7
100
AcDbLine
 10
159.7166570728299
 20
445.1000000236596
 30
0.0
 11
113.9975440887133
 21
445.1000000236596
 31
0.0
  0
LINE
  5
C6
330
55
100
AcDbEntity
  8
0
  6
Continuous
 62
     7
100
AcDbLine
 10
112.4000009059417
 20
462.1000000236583
 30
0.0
 11
112.4000009059417
 21
473.1631896744264
 31
0.0
  0
LINE
  5
C7
330
55
100
AcDbEntity
  8
0
  6
Continuous
 62
     7
100
AcDbLine
 10
112.4000009059417
 20
473.1631896744264
 30
0.0
 11
132.2829739293356
 21
480.4000000236596
 31
0.0
  0
ARC
  5
C8
330
55
100
AcDbEntity
  8
0
  6
Continuous
 62
     7
100
AcDbCircle
 10
98.65227382107399
 20
456.1000000236583
 30
0.0
 40
15.00000000000012
100
AcDbArc
 50
336.4218215217988
 51
23.57817847820155
  0
ARC
  5
C9
330
55
100
AcDbEntity
  8
0
  6
Continuous
 62
     7
100
AcDbCircle
 10
177.5090889272086
 20
457.6000000236579
 30
0.0
 40
15.00000000001282
100
AcDbArc
 50
162.542396876297
 51
197.457603123703
  0
ENDBLK
  5
57
330
55
100
AcDbEntity
  8
0
100
AcDbBlockEnd
  0
BLOCK
  5
5A
330
58
100
AcDbEntity
  8
0
100
AcDbBlockBegin
  2
Rckans1
 70
     0
 10
137.8000016212214
 20
462.7499992028279
 30
0.0
  3
Rckans1
  1

  0
INSERT
  5
59
330
58
100
AcDbEntity
  8
0
100
AcDbBlockReference
  2
d-sts_25-select__3
 10
112.4000009059416
 20
445.1000000236596
 30
0.0
  0
MTEXT
  5
CA
330
58
100
AcDbEntity
  8
1
 62
     6
100
AcDbMText
 10
137.8000016212214
 20
440.1000000238819
 30
0.0
 40
5.0
 41
0.0
 71
     2
 72
     1
  1
 
  7
CONVERTER_11
 73
     1
 44
1.32052821128451
  0
ENDBLK
  5
5B
330
58
100
AcDbEntity
  8
0
100
AcDbBlockEnd
  0
BLOCK
  5
5D
330
5C
100
AcDbEntity
  8
0
100
AcDbBlockBegin
  2
d-sts_25-select__4
 70
     0
 10
73.30000083446508
 20
445.1000000236595
 30
0.0
  3
d-sts_25-select__4
  1

  0
LINE
  5
CB
330
5C
100
AcDbEntity
  8
0
  6
Continuous
 62
     7
100
AcDbLine
 10
75.50000083446497
 20
445.1000000236595
 30
0.0
 11
73.30000083446508
 21
445.1000000236595
 31
0.0
  0
LINE
  5
CC
330
5C
100
AcDbEntity
  8
0
  6
Continuous
 62
     7
100
AcDbLine
 10
75.50000083446497
 20
451.5000000236635
 30
0.0
 11
73.30000083446508
 21
451.5000000236635
 31
0.0
  0
LINE
  5
CD
330
5C
100
AcDbEntity
  8
0
  6
Continuous
 62
     7
100
AcDbLine
 10
75.50000083446497
 20
445.1000000236595
 30
0.0
 11
75.50000083446497
 21
451.5000000236635
 31
0.0
  0
LINE
  5
CE
330
5C
100
AcDbEntity
  8
0
  6
Continuous
 62
     7
100
AcDbLine
 10
75.50000083446497
 20
451.5000000236635
 30
0.0
 11
75.50000083446497
 21
453.1000000236587
 31
0.0
  0
LINE
  5
CF
330
5C
100
AcDbEntity
  8
0
  6
Continuous
 62
     7
100
AcDbLine
 10
73.30000083446508
 20
453.1000000236586
 30
0.0
 11
73.30000083446508
 21
451.5000000236635
 31
0.0
  0
LINE
  5
D0
330
5C
100
AcDbEntity
  8
0
  6
Continuous
 62
     7
100
AcDbLine
 10
73.30000083446508
 20
453.1000000236586
 30
0.0
 11
73.30000083446508
 21
462.1000000236568
 31
0.0
  0
LINE
  5
D1
330
5C
100
AcDbEntity
  8
0
  6
Continuous
 62
     7
100
AcDbLine
 10
73.30000083446508
 20
451.5000000236635
 30
0.0
 11
73.30000083446508
 21
445.1000000236595
 31
0.0
  0
LINE
  5
D2
330
5C
100
AcDbEntity
  8
0
  6
Continuous
 62
     7
100
AcDbLine
 10
75.50000083446497
 20
462.1000000236568
 30
0.0
 11
73.30000083446508
 21
462.1000000236568
 31
0.0
  0
LINE
  5
D3
330
5C
100
AcDbEntity
  8
0
  6
Continuous
 62
     7
100
AcDbLine
 10
75.50000083446497
 20
453.1000000236587
 30
0.0
 11
75.50000083446497
 21
462.1000000236568
 31
0.0
  0
LINE
  5
D4
330
5C
100
AcDbEntity
  8
0
  6
Continuous
 62
     7
100
AcDbLine
 10
73.30000083446508
 20
453.1000000236586
 30
0.0
 11
75.50000083446497
 21
453.1000000236587
 31
0.0
  0
LINE
  5
D5
330
5C
100
AcDbEntity
  8
0
  6
Continuous
 62
     7
100
AcDbLine
 10
73.30000083446508
 20
480.4000000236595
 30
0.0
 11
73.30000083446508
 21
473.1631896744262
 31
0.0
  0
LINE
  5
D6
330
5C
100
AcDbEntity
  8
0
  6
Continuous
 62
     7
100
AcDbLine
 10
75.50000083446497
 20
480.4000000236595
 30
0.0
 11
73.30000083446508
 21
480.4000000236595
 31
0.0
  0
LINE
  5
D7
330
5C
100
AcDbEntity
  8
0
  6
Continuous
 62
     7
100
AcDbLine
 10
75.50000083446497
 20
473.1631896744262
 30
0.0
 11
75.50000083446497
 21
480.4000000236595
 31
0.0
  0
LINE
  5
D8
330
5C
100
AcDbEntity
  8
0
  6
Continuous
 62
     7
100
AcDbLine
 10
75.50000083446497
 20
473.1631896744262
 30
0.0
 11
75.50000083446497
 21
462.1000000236568
 31
0.0
  0
LINE
  5
D9
330
5C
100
AcDbEntity
  8
0
  6
Continuous
 62
     7
100
AcDbLine
 10
73.30000083446508
 20
473.1631896744262
 30
0.0
 11
75.50000083446497
 21
473.1631896744262
 31
0.0
  0
LINE
  5
DA
330
5C
100
AcDbEntity
  8
0
  6
Continuous
 62
     7
100
AcDbLine
 10
73.30000083446508
 20
473.1631896744262
 30
0.0
 11
73.30000083446508
 21
462.1000000236568
 31
0.0
  0
ENDBLK
  5
5E
330
5C
100
AcDbEntity
  8
0
100
AcDbBlockEnd
  0
BLOCK
  5
61
330
5F
100
AcDbEntity
  8
0
100
AcDbBlockBegin
  2
SA_Links1
 70
     0
 10
74.40000081062317
 20
462.7499992028277
 30
0.0
  3
SA_Links1
  1

  0
INSERT
  5
60
330
5F
100
AcDbEntity
  8
0
100
AcDbBlockReference
  2
d-sts_25-select__4
 10
73.30000083446508
 20
445.1000000236595
 30
0.0
  0
MTEXT
  5
DB
330
5F
100
AcDbEntity
  8
1
 62
     6
100
AcDbMText
 10
74.40000081062317
 20
440.1000000238819
 30
0.0
 40
5.0
 41
0.0
 71
     2
 72
     1
  1
 
  7
CONVERTER_11
 73
     1
 44
1.32052821128451
  0
ENDBLK
  5
62
330
5F
100
AcDbEntity
  8
0
100
AcDbBlockEnd
  0
BLOCK
  5
64
330
63
100
AcDbEntity
  8
0
100
AcDbBlockBegin
  2
d-sts_25-select__5
 70
     0
 10
-69.500000834465
 20
445.1000000236596
 30
0.0
  3
d-sts_25-select__5
  1

  0
LINE
  5
DC
330
63
100
AcDbEntity
  8
0
  6
Continuous
 62
     7
100
AcDbLine
 10
-67.30000083446501
 20
473.1631896744264
 30
0.0
 11
-67.30000083446501
 21
480.4000000236596
 31
0.0
  0
LINE
  5
DD
330
63
100
AcDbEntity
  8
0
  6
Continuous
 62
     7
100
AcDbLine
 10
-67.30000083446501
 20
462.1000000236583
 30
0.0
 11
-67.30000083446501
 21
473.1631896744264
 31
0.0
  0
LINE
  5
DE
330
63
100
AcDbEntity
  8
0
  6
Continuous
 62
     7
100
AcDbLine
 10
-67.30000083446501
 20
462.1000000236583
 30
0.0
 11
-69.500000834465
 21
462.1000000236583
 31
0.0
  0
LINE
  5
DF
330
63
100
AcDbEntity
  8
0
  6
Continuous
 62
     7
100
AcDbLine
 10
-69.500000834465
 20
473.1631896744264
 30
0.0
 11
-69.500000834465
 21
480.4000000236596
 31
0.0
  0
LINE
  5
E0
330
63
100
AcDbEntity
  8
0
  6
Continuous
 62
     7
100
AcDbLine
 10
-69.500000834465
 20
473.1631896744264
 30
0.0
 11
-69.500000834465
 21
462.1000000236583
 31
0.0
  0
LINE
  5
E1
330
63
100
AcDbEntity
  8
0
  6
Continuous
 62
     7
100
AcDbLine
 10
-67.30000083446501
 20
445.1000000236596
 30
0.0
 11
-67.30000083446501
 21
448.1000000236596
 31
0.0
  0
LINE
  5
E2
330
63
100
AcDbEntity
  8
0
  6
Continuous
 62
     7
100
AcDbLine
 10
-67.30000083446501
 20
448.1000000236596
 30
0.0
 11
-67.30000083446501
 21
450.1000000236584
 31
0.0
  0
LINE
  5
E3
330
63
100
AcDbEntity
  8
0
  6
Continuous
 62
     7
100
AcDbLine
 10
-67.30000083446501
 20
480.4000000236596
 30
0.0
 11
-69.500000834465
 21
480.4000000236596
 31
0.0
  0
LINE
  5
E4
330
63
100
AcDbEntity
  8
0
  6
Continuous
 62
     7
100
AcDbLine
 10
-69.500000834465
 20
445.1000000236596
 30
0.0
 11
-69.500000834465
 21
448.1000000236596
 31
0.0
  0
LINE
  5
E5
330
63
100
AcDbEntity
  8
0
  6
Continuous
 62
     7
100
AcDbLine
 10
-67.30000083446501
 20
473.1631896744264
 30
0.0
 11
-69.500000834465
 21
473.1631896744264
 31
0.0
  0
LINE
  5
E6
330
63
100
AcDbEntity
  8
0
  6
Continuous
 62
     7
100
AcDbLine
 10
-69.500000834465
 20
450.1000000236584
 30
0.0
 11
-69.500000834465
 21
448.1000000236596
 31
0.0
  0
LINE
  5
E7
330
63
100
AcDbEntity
  8
0
  6
Continuous
 62
     7
100
AcDbLine
 10
-69.500000834465
 20
448.1000000236596
 30
0.0
 11
-67.30000083446501
 21
448.1000000236596
 31
0.0
  0
LINE
  5
E8
330
63
100
AcDbEntity
  8
0
  6
Continuous
 62
     7
100
AcDbLine
 10
-69.500000834465
 20
450.1000000236584
 30
0.0
 11
-67.30000083446501
 21
450.1000000236584
 31
0.0
  0
LINE
  5
E9
330
63
100
AcDbEntity
  8
0
  6
Continuous
 62
     7
100
AcDbLine
 10
-67.30000083446501
 20
462.1000000236583
 30
0.0
 11
-67.30000083446501
 21
450.1000000236584
 31
0.0
  0
LINE
  5
EA
330
63
100
AcDbEntity
  8
0
  6
Continuous
 62
     7
100
AcDbLine
 10
-67.30000083446501
 20
445.1000000236596
 30
0.0
 11
-69.500000834465
 21
445.1000000236596
 31
0.0
  0
LINE
  5
EB
330
63
100
AcDbEntity
  8
0
  6
Continuous
 62
     7
100
AcDbLine
 10
-69.500000834465
 20
462.1000000236583
 30
0.0
 11
-69.500000834465
 21
450.1000000236584
 31
0.0
  0
ENDBLK
  5
65
330
63
100
AcDbEntity
  8
0
100
AcDbBlockEnd
  0
BLOCK
  5
68
330
66
100
AcDbEntity
  8
0
100
AcDbBlockBegin
  2
SA_Rechts1
 70
     0
 10
-68.40000081062314
 20
462.7499992028279
 30
0.0
  3
SA_Rechts1
  1

  0
INSERT
  5
67
330
66
100
AcDbEntity
  8
0
100
AcDbBlockReference
  2
d-sts_25-select__5
 10
-69.500000834465
 20
445.1000000236596
 30
0.0
  0
MTEXT
  5
EC
330
66
100
AcDbEntity
  8
1
 62
     6
100
AcDbMText
 10
-68.40000081062317
 20
440.1000000238819
 30
0.0
 40
5.0
 41
0.0
 71
     2
 72
     1
  1
 
  7
CONVERTER_11
 73
     1
 44
1.32052821128451
  0
ENDBLK
  5
69
330
66
100
AcDbEntity
  8
0
100
AcDbBlockEnd
  0
BLOCK
  5
6B
330
6A
100
AcDbEntity
  8
0
100
AcDbBlockBegin
  2
d-sts_25-select__6
 70
     0
 10
-14.39999928468912
 20
445.1000000236595
 30
0.0
  3
d-sts_25-select__6
  1

  0
LINE
  5
ED
330
6A
100
AcDbEntity
  8
0
  6
Continuous
 62
     7
100
AcDbLine
 10
36.40000071530996
 20
450.1000000236582
 30
0.0
 11
36.40000071530996
 21
448.1000000236595
 31
0.0
  0
LINE
  5
EE
330
6A
100
AcDbEntity
  8
0
  6
Continuous
 62
     7
100
AcDbLine
 10
34.80245753253826
 20
445.1000000236595
 30
0.0
 11
36.40000071530996
 21
448.1000000236595
 31
0.0
  0
LINE
  5
EF
330
6A
100
AcDbEntity
  8
0
  6
Continuous
 62
     7
100
AcDbLine
 10
-10.9166554515783
 20
445.1000000236595
 30
0.0
 11
-9.78816277504436
 21
451.5000000236635
 31
0.0
  0
LINE
  5
F0
330
6A
100
AcDbEntity
  8
0
  6
Continuous
 62
     7
100
AcDbLine
 10
-14.3999992846891
 20
451.5000000236635
 30
0.0
 11
-9.78816277504436
 21
451.5000000236635
 31
0.0
  0
LINE
  5
F1
330
6A
100
AcDbEntity
  8
0
  6
Continuous
 62
     7
100
AcDbLine
 10
-14.3999992846891
 20
451.5000000236635
 30
0.0
 11
-14.3999992846891
 21
453.1000000236587
 31
0.0
  0
LINE
  5
F2
330
6A
100
AcDbEntity
  8
0
  6
Continuous
 62
     7
100
AcDbLine
 10
-14.39999928468912
 20
473.1631896744262
 30
0.0
 11
-14.3999992846891
 21
462.1000000236568
 31
0.0
  0
LINE
  5
F3
330
6A
100
AcDbEntity
  8
0
  6
Continuous
 62
     7
100
AcDbLine
 10
-14.39999928468912
 20
473.1631896744262
 30
0.0
 11
5.48297373870489
 21
480.4000000236595
 31
0.0
  0
LINE
  5
F4
330
6A
100
AcDbEntity
  8
0
  6
Continuous
 62
     7
100
AcDbLine
 10
5.48297373870489
 20
480.4000000236595
 30
0.0
 11
16.51702769191597
 21
480.4000000236595
 31
0.0
  0
LINE
  5
F5
330
6A
100
AcDbEntity
  8
0
  6
Continuous
 62
     7
100
AcDbLine
 10
34.80245753253826
 20
445.1000000236595
 30
0.0
 11
-10.9166554515783
 21
445.1000000236595
 31
0.0
  0
LINE
  5
F6
330
6A
100
AcDbEntity
  8
0
  6
Continuous
 62
     7
100
AcDbLine
 10
36.40000071530996
 20
473.1631896744262
 30
0.0
 11
36.40000071530996
 21
462.1000000236581
 31
0.0
  0
LINE
  5
F7
330
6A
100
AcDbEntity
  8
0
  6
Continuous
 62
     7
100
AcDbLine
 10
36.40000071530996
 20
473.1631896744262
 30
0.0
 11
16.51702769191597
 21
480.4000000236595
 31
0.0
  0
ARC
  5
F8
330
6A
100
AcDbEntity
  8
0
  6
Continuous
 62
     7
100
AcDbCircle
 10
50.14772780017765
 20
456.1000000236581
 30
0.0
 40
15.00000000000016
100
AcDbArc
 50
156.4218215217984
 51
203.5781784782012
  0
ARC
  5
F9
330
6A
100
AcDbEntity
  8
0
  6
Continuous
 62
     7
100
AcDbCircle
 10
-28.70908730595694
 20
457.6000000236577
 30
0.0
 40
15.00000000001272
100
AcDbArc
 50
342.5423968762973
 51
17.45760312370313
  0
ENDBLK
  5
6C
330
6A
100
AcDbEntity
  8
0
100
AcDbBlockEnd
  0
BLOCK
  5
6F
330
6D
100
AcDbEntity
  8
0
100
AcDbBlockBegin
  2
Vordans1
 70
     0
 10
11.00000000003018
 20
462.7499992028277
 30
0.0
  3
Vordans1
  1

  0
INSERT
  5
6E
330
6D
100
AcDbEntity
  8
0
100
AcDbBlockReference
  2
d-sts_25-select__6
 10
-14.39999928468912
 20
445.1000000236595
 30
0.0
  0
MTEXT
  5
FA
330
6D
100
AcDbEntity
  8
1
 62
     6
100
AcDbMText
 10
11.00000000003001
 20
440.1000000238819
 30
0.0
 40
5.0
 41
0.0
 71
     2
 72
     1
  1
 
  7
CONVERTER_11
 73
     1
 44
1.32052821128451
  0
DIMENSION
  5
105
330
6D
100
AcDbEntity
  8
1
100
AcDbDimension
  2
*D18
 10
-14.3999992846891
 20
426.3964384682319
 30
0.0
 11
11.43989851927688
 21
429.8214384682319
 31
0.0
 70
    32
  1
<>
 71
     5
 42
-1.0
 53
0.00013888888889
  3
ME10_DIM_11
100
AcDbAlignedDimension
 13
36.40000071530996
 23
448.1000000236595
 33
0.0
 14
-14.3999992846891
 24
451.5000000236635
 34
0.0
100
AcDbRotatedDimension
  0
DIMENSION
  5
110
330
6D
100
AcDbEntity
  8
1
100
AcDbDimension
  2
*D19
 10
-30.09758311856572
 20
480.4000000236594
 30
0.0
 11
-33.52258311856572
 21
461.85851080008
 31
0.0
 70
    32
  1
<>
 71
     5
 42
-1.0
 53
90.0
  3
ME10_DIM_12
100
AcDbAlignedDimension
 13
-10.9166554515783
 23
445.1000000236595
 33
0.0
 14
5.48297373870489
 24
480.4000000236595
 34
0.0
 50
90.0
100
AcDbRotatedDimension
  0
ENDBLK
  5
70
330
6D
100
AcDbEntity
  8
0
100
AcDbBlockEnd
  0
BLOCK
  5
72
330
71
100
AcDbEntity
  8
0
100
AcDbBlockBegin
  2
_rahmen
 70
     0
 10
193.4000000476588
 20
321.1441690864432
 30
0.0
  3
_rahmen
  1

  0
LINE
  5
111
330
71
100
AcDbEntity
  8
1
  6
DOT_CENTER
 62
     2
100
AcDbLine
 10
67.84185040747138
 20
347.2691690864432
 30
0.0
 11
73.34185040747138
 21
347.2691690864432
 31
0.0
  0
LINE
  5
112
330
71
100
AcDbEntity
  8
1
  6
PHANTOM
 62
     2
100
AcDbLine
 10
76.59185040747138
 20
350.0191690864432
 30
0.0
 11
76.59185040747138
 21
344.5191690864432
 31
0.0
  0
LINE
  5
113
330
71
100
AcDbEntity
  8
1
  6
PHANTOM
 62
     2
100
AcDbLine
 10
79.34185040747138
 20
347.2691690864432
 30
0.0
 11
73.84185040747138
 21
347.2691690864432
 31
0.0
  0
LINE
  5
114
330
71
100
AcDbEntity
  8
1
  6
Continuous
 62
     7
100
AcDbLine
 10
128.1551955209088
 20
334.6441690864432
 30
0.0
 11
128.1551955209088
 21
343.1441690864433
 31
0.0
  0
LINE
  5
115
330
71
100
AcDbEntity
  8
1
  6
Continuous
 62
     6
100
AcDbLine
 10
100.2551955209087
 20
343.1441690864433
 30
0.0
 11
193.4000000476605
 21
343.1441690864433
 31
0.0
  0
LINE
  5
116
330
71
100
AcDbEntity
  8
1
  6
Continuous
 62
     7
100
AcDbLine
 10
63.85519552090878
 20
343.1441690864433
 30
0.0
 11
63.85519552090878
 21
351.6441690864433
 31
0.0
  0
LINE
  5
117
330
71
100
AcDbEntity
  8
1
  6
Continuous
 62
     7
100
AcDbLine
 10
100.2551955209087
 20
343.1441690864433
 30
0.0
 11
100.2551955209087
 21
351.6441690864433
 31
0.0
  0
LINE
  5
118
330
71
100
AcDbEntity
  8
1
  6
Continuous
 62
     7
100
AcDbLine
 10
157.9815917659817
 20
351.6441690864433
 30
0.0
 11
157.9815917659817
 21
343.1441690864433
 31
0.0
  0
LINE
  5
119
330
71
100
AcDbEntity
  8
1
  6
Continuous
 62
     7
100
AcDbLine
 10
184.4815917659813
 20
351.6441690864433
 30
0.0
 11
184.4815917659813
 21
343.1441690864433
 31
0.0
  0
LINE
  5
11A
330
71
100
AcDbEntity
  8
1
  6
Continuous
 62
     6
100
AcDbLine
 10
-5.14480447909119
 20
326.1441690864433
 30
0.0
 11
-50.09999995234119
 21
326.1441690864433
 31
0.0
  0
LINE
  5
11B
330
71
100
AcDbEntity
  8
1
  6
Continuous
 62
     7
100
AcDbLine
 10
193.4000000476601
 20
334.6441690864433
 30
0.0
 11
100.2551955209087
 21
334.6441690864433
 31
0.0
  0
LINE
  5
11C
102
{ACAD_REACTORS
330
22E
330
22F
102
}
330
71
100
AcDbEntity
  8
0
  6
Continuous
 62
     2
100
AcDbLine
 10
77.56262446267618
 20
335.4444582021066
 30
0.0
 11
77.56262446267618
 21
336.3169752089099
 31
0.0
  0
LINE
  5
11D
102
{ACAD_REACTORS
330
22E
330
22F
102
}
330
71
100
AcDbEntity
  8
0
  6
Continuous
 62
     2
100
AcDbLine
 10
77.56262446267618
 20
334.4846894946237
 30
0.0
 11
77.56262446267618
 21
333.6121724878205
 31
0.0
  0
LINE
  5
11E
102
{ACAD_REACTORS
330
230
330
231
102
}
330
71
100
AcDbEntity
  8
0
  6
Continuous
 62
     2
100
AcDbLine
 10
92.8956685989667
 20
335.7062133041471
 30
0.0
 11
93.9993078985348
 21
335.7062133041471
 31
0.0
  0
LINE
  5
11F
102
{ACAD_REACTORS
330
230
330
231
102
}
330
71
100
AcDbEntity
  8
0
  6
Continuous
 62
     2
100
AcDbLine
 10
93.6653259419281
 20
334.4846894946232
 30
0.0
 11
93.6653259419281
 21
333.6121724878199
 31
0.0
  0
LINE
  5
120
102
{ACAD_REACTORS
330
23A
330
23B
102
}
330
71
100
AcDbEntity
  8
0
  6
Continuous
 62
     2
100
AcDbLine
 10
91.80456932654818
 20
336.7968595626339
 30
0.0
 11
93.20252237348848
 21
338.3777185564089
 31
0.0
  0
LINE
  5
121
102
{ACAD_REACTORS
330
23A
330
23B
102
}
330
71
100
AcDbEntity
  8
0
  6
Continuous
 62
     2
100
AcDbLine
 10
91.899992742721
 20
339.8506690864451
 30
0.0
 11
93.20252237348848
 21
338.3777185564089
 31
0.0
  0
LINE
  5
122
102
{ACAD_REACTORS
330
23A
330
23B
102
}
330
71
100
AcDbEntity
  8
0
  6
Continuous
 62
     2
100
AcDbLine
 10
94.50505200425488
 20
339.8506690864451
 30
0.0
 11
95.9077762220021
 21
339.8506690864451
 31
0.0
  0
LINE
  5
123
102
{ACAD_REACTORS
330
23A
330
23B
102
}
330
71
100
AcDbEntity
  8
0
  6
Continuous
 62
     2
100
AcDbLine
 10
93.20729354429639
 20
336.7968595626339
 30
0.0
 11
93.90388448236209
 21
337.5845913479276
 31
0.0
  0
LINE
  5
124
102
{ACAD_REACTORS
330
23A
330
23B
102
}
330
71
100
AcDbEntity
  8
0
  6
Continuous
 62
     2
100
AcDbLine
 10
93.20729354429639
 20
336.7968595626339
 30
0.0
 11
91.80456932654818
 21
336.7968595626339
 31
0.0
  0
LINE
  5
125
102
{ACAD_REACTORS
330
23C
330
23D
102
}
330
71
100
AcDbEntity
  8
0
  6
Continuous
 62
     2
100
AcDbLine
 10
91.6852900563313
 20
336.7968595626339
 30
0.0
 11
90.4447856460784
 21
336.7968595626339
 31
0.0
  0
LINE
  5
126
102
{ACAD_REACTORS
330
23E
330
23F
102
}
330
71
100
AcDbEntity
  8
0
  6
Continuous
 62
     2
100
AcDbLine
 10
89.57680603792329
 20
334.6591928959841
 30
0.0
 11
89.27664080073319
 21
335.4270078619708
 31
0.0
  0
LINE
  5
127
102
{ACAD_REACTORS
330
23E
330
23F
102
}
330
71
100
AcDbEntity
  8
0
  6
Continuous
 62
     2
100
AcDbLine
 10
88.97647556354079
 20
334.6591928959841
 30
0.0
 11
89.57680603792329
 21
334.6591928959841
 31
0.0
  0
LINE
  5
128
102
{ACAD_REACTORS
330
23E
330
23F
102
}
330
71
100
AcDbEntity
  8
0
  6
Continuous
 62
     2
100
AcDbLine
 10
87.258435548667
 20
333.4376690864596
 30
0.0
 11
88.49893995891998
 21
333.4376690864596
 31
0.0
  0
LINE
  5
129
102
{ACAD_REACTORS
330
23E
330
23F
102
}
330
71
100
AcDbEntity
  8
0
  6
Continuous
 62
     2
100
AcDbLine
 10
88.6563885956063
 20
336.4914786102707
 30
0.0
 11
89.896893005859
 21
336.4914786102707
 31
0.0
  0
LINE
  5
12A
102
{ACAD_REACTORS
330
23E
330
23F
102
}
330
71
100
AcDbEntity
  8
0
  6
Continuous
 62
     2
100
AcDbLine
 10
89.896893005859
 20
336.4914786102707
 30
0.0
 11
91.2948460527993
 21
333.4376690864596
 31
0.0
  0
LINE
  5
12B
102
{ACAD_REACTORS
330
23E
330
23F
102
}
330
71
100
AcDbEntity
  8
0
  6
Continuous
 62
     2
100
AcDbLine
 10
90.05434164254538
 20
333.4376690864596
 30
0.0
 11
89.8428615890696
 21
333.9786296306775
 31
0.0
  0
LINE
  5
12C
102
{ACAD_REACTORS
330
240
330
241
102
}
330
71
100
AcDbEntity
  8
0
  6
Continuous
 62
     2
100
AcDbLine
 10
85.91202244695938
 20
333.4376690864596
 30
0.0
 11
87.1048151491259
 21
333.4376690864596
 31
0.0
  0
LINE
  5
12D
102
{ACAD_REACTORS
330
240
330
241
102
}
330
71
100
AcDbEntity
  8
0
  6
Continuous
 62
     2
100
AcDbLine
 10
85.91202244695938
 20
335.7062133041471
 30
0.0
 11
85.91202244695938
 21
333.4376690864596
 31
0.0
  0
LINE
  5
12E
102
{ACAD_REACTORS
330
240
330
241
102
}
330
71
100
AcDbEntity
  8
0
  6
Continuous
 62
     2
100
AcDbLine
 10
85.10092340948478
 20
336.4914786102707
 30
0.0
 11
85.10092340948478
 21
335.7062133041471
 31
0.0
  0
LINE
  5
12F
102
{ACAD_REACTORS
330
242
330
243
102
}
330
71
100
AcDbEntity
  8
0
  6
Continuous
 62
     2
100
AcDbLine
 10
86.58013729105738
 20
336.7968595626339
 30
0.0
 11
87.7729299932239
 21
336.7968595626339
 31
0.0
  0
LINE
  5
130
102
{ACAD_REACTORS
330
242
330
243
102
}
330
71
100
AcDbEntity
  8
0
  6
Continuous
 62
     2
100
AcDbLine
 10
89.0134344034779
 20
338.5418935762399
 30
0.0
 11
87.7729299932239
 21
339.8506690864451
 31
0.0
  0
LINE
  5
131
102
{ACAD_REACTORS
330
242
330
243
102
}
330
71
100
AcDbEntity
  8
0
  6
Continuous
 62
     2
100
AcDbLine
 10
90.2062271056445
 20
339.8506690864451
 30
0.0
 11
89.0134344034779
 21
339.8506690864451
 31
0.0
  0
LINE
  5
132
102
{ACAD_REACTORS
330
242
330
243
102
}
330
71
100
AcDbEntity
  8
0
  6
Continuous
 62
     2
100
AcDbLine
 10
90.2062271056445
 20
336.7968595626339
 30
0.0
 11
90.2062271056445
 21
339.8506690864451
 31
0.0
  0
LINE
  5
133
102
{ACAD_REACTORS
330
242
330
243
102
}
330
71
100
AcDbEntity
  8
0
  6
Continuous
 62
     2
100
AcDbLine
 10
89.0134344034779
 20
336.7968595626339
 30
0.0
 11
90.2062271056445
 21
336.7968595626339
 31
0.0
  0
LINE
  5
134
102
{ACAD_REACTORS
330
242
330
243
102
}
330
71
100
AcDbEntity
  8
0
  6
Continuous
 62
     2
100
AcDbLine
 10
87.7729299932239
 20
338.1056350728386
 30
0.0
 11
89.0134344034779
 21
336.7968595626339
 31
0.0
  0
LINE
  5
135
102
{ACAD_REACTORS
330
244
330
245
102
}
330
71
100
AcDbEntity
  8
0
  6
Continuous
 62
     2
100
AcDbLine
 10
83.76499558305818
 20
335.1827031000656
 30
0.0
 11
82.52449117280528
 21
336.4914786102707
 31
0.0
  0
LINE
  5
136
102
{ACAD_REACTORS
330
244
330
245
102
}
330
71
100
AcDbEntity
  8
0
  6
Continuous
 62
     2
100
AcDbLine
 10
83.76499558305818
 20
336.4914786102707
 30
0.0
 11
83.76499558305818
 21
335.1827031000656
 31
0.0
  0
LINE
  5
137
102
{ACAD_REACTORS
330
244
330
245
102
}
330
71
100
AcDbEntity
  8
0
  6
Continuous
 62
     2
100
AcDbLine
 10
84.95778828522458
 20
336.4914786102707
 30
0.0
 11
83.76499558305818
 21
336.4914786102707
 31
0.0
  0
LINE
  5
138
102
{ACAD_REACTORS
330
244
330
245
102
}
330
71
100
AcDbEntity
  8
0
  6
Continuous
 62
     2
100
AcDbLine
 10
84.95778828522458
 20
333.4376690864596
 30
0.0
 11
84.95778828522458
 21
336.4914786102707
 31
0.0
  0
LINE
  5
139
102
{ACAD_REACTORS
330
244
330
245
102
}
330
71
100
AcDbEntity
  8
0
  6
Continuous
 62
     2
100
AcDbLine
 10
82.52449117280528
 20
334.7464445966642
 30
0.0
 11
83.76499558305818
 21
333.4376690864596
 31
0.0
  0
LINE
  5
13A
102
{ACAD_REACTORS
330
244
330
245
102
}
330
71
100
AcDbEntity
  8
0
  6
Continuous
 62
     2
100
AcDbLine
 10
82.52449117280528
 20
333.4376690864596
 30
0.0
 11
82.52449117280528
 21
334.7464445966642
 31
0.0
  0
LINE
  5
13B
102
{ACAD_REACTORS
330
234
330
235
102
}
330
71
100
AcDbEntity
  8
0
  6
Continuous
 62
     2
100
AcDbLine
 10
85.0056509241968
 20
339.1526554810021
 30
0.0
 11
86.34157875062448
 21
339.1526554810021
 31
0.0
  0
LINE
  5
13C
102
{ACAD_REACTORS
330
234
330
235
102
}
330
71
100
AcDbEntity
  8
0
  6
Continuous
 62
     2
100
AcDbLine
 10
85.0056509241968
 20
337.4948731680764
 30
0.0
 11
85.0056509241968
 21
337.9747575218181
 31
0.0
  0
LINE
  5
13D
102
{ACAD_REACTORS
330
234
330
235
102
}
330
71
100
AcDbEntity
  8
0
  6
Continuous
 62
     2
100
AcDbLine
 10
86.34157875062448
 20
337.4948731680764
 30
0.0
 11
85.0056509241968
 21
337.4948731680764
 31
0.0
  0
LINE
  5
13E
102
{ACAD_REACTORS
330
234
330
235
102
}
330
71
100
AcDbEntity
  8
0
  6
Continuous
 62
     2
100
AcDbLine
 10
86.34157875062448
 20
336.7968595626339
 30
0.0
 11
86.34157875062448
 21
337.4948731680764
 31
0.0
  0
LINE
  5
13F
102
{ACAD_REACTORS
330
234
330
235
102
}
330
71
100
AcDbEntity
  8
0
  6
Continuous
 62
     2
100
AcDbLine
 10
83.19125902684348
 20
336.7968595626339
 30
0.0
 11
86.34157875062448
 21
336.7968595626339
 31
0.0
  0
LINE
  5
140
102
{ACAD_REACTORS
330
234
330
235
102
}
330
71
100
AcDbEntity
  8
0
  6
Continuous
 62
     2
100
AcDbLine
 10
83.19125902684348
 20
339.8506690864451
 30
0.0
 11
86.34157875062448
 21
339.8506690864451
 31
0.0
  0
LINE
  5
141
102
{ACAD_REACTORS
330
234
330
235
102
}
330
71
100
AcDbEntity
  8
0
  6
Continuous
 62
     2
100
AcDbLine
 10
86.34157875062448
 20
339.1526554810021
 30
0.0
 11
86.34157875062448
 21
339.8506690864451
 31
0.0
  0
LINE
  5
142
102
{ACAD_REACTORS
330
246
330
247
102
}
330
71
100
AcDbEntity
  8
0
  6
Continuous
 62
     2
100
AcDbLine
 10
80.32990353170348
 20
338.7818357531105
 30
0.0
 11
80.32990353170348
 21
339.8506690864451
 31
0.0
  0
LINE
  5
143
102
{ACAD_REACTORS
330
246
330
247
102
}
330
71
100
AcDbEntity
  8
0
  6
Continuous
 62
     2
100
AcDbLine
 10
80.32990353170348
 20
339.8506690864451
 30
0.0
 11
81.52269623386988
 21
339.8506690864451
 31
0.0
  0
LINE
  5
144
102
{ACAD_REACTORS
330
246
330
247
102
}
330
71
100
AcDbEntity
  8
0
  6
Continuous
 62
     2
100
AcDbLine
 10
80.32990353170348
 20
337.9311316714777
 30
0.0
 11
79.280245953796
 21
337.9311316714777
 31
0.0
  0
LINE
  5
145
102
{ACAD_REACTORS
330
246
330
247
102
}
330
71
100
AcDbEntity
  8
0
  6
Continuous
 62
     2
100
AcDbLine
 10
79.280245953796
 20
337.9311316714777
 30
0.0
 11
79.280245953796
 21
336.7968595626339
 31
0.0
  0
LINE
  5
146
102
{ACAD_REACTORS
330
246
330
247
102
}
330
71
100
AcDbEntity
  8
0
  6
Continuous
 62
     2
100
AcDbLine
 10
78.0874532516294
 20
339.8506690864451
 30
0.0
 11
78.0874532516294
 21
336.7968595626339
 31
0.0
  0
LINE
  5
147
102
{ACAD_REACTORS
330
238
330
239
102
}
330
71
100
AcDbEntity
  8
0
  6
Continuous
 62
     2
100
AcDbLine
 10
76.1312732200758
 20
338.4818355916628
 30
0.0
 11
76.1312732200758
 21
339.187563241005
 31
0.0
  0
LINE
  5
148
102
{ACAD_REACTORS
330
238
330
239
102
}
330
71
100
AcDbEntity
  8
0
  6
Continuous
 62
     2
100
AcDbLine
 10
74.89076880982168
 20
336.7968595626339
 30
0.0
 11
76.1312732200758
 21
336.7968595626339
 31
0.0
  0
LINE
  5
149
102
{ACAD_REACTORS
330
238
330
239
102
}
330
71
100
AcDbEntity
  8
0
  6
Continuous
 62
     2
100
AcDbLine
 10
76.1312732200758
 20
336.7968595626339
 30
0.0
 11
76.1312732200758
 21
337.7399378037777
 31
0.0
  0
LINE
  5
14A
102
{ACAD_REACTORS
330
232
330
233
102
}
330
71
100
AcDbEntity
  8
0
  6
Continuous
 62
     2
100
AcDbLine
 10
70.5858229606103
 20
334.1502246420165
 30
0.0
 11
69.10998969960067
 21
334.1502246420165
 31
0.0
  0
LINE
  5
14B
102
{ACAD_REACTORS
330
232
330
233
102
}
330
71
100
AcDbEntity
  8
0
  6
Continuous
 62
     2
100
AcDbLine
 10
68.09185040747138
 20
339.4264244710431
 30
0.0
 11
68.09185040747138
 21
333.8619137018429
 31
0.0
  0
LINE
  5
14C
102
{ACAD_REACTORS
330
232
330
233
102
}
330
71
100
AcDbEntity
  8
0
  6
Continuous
 62
     2
100
AcDbLine
 10
68.51609502285419
 20
339.8506690864269
 30
0.0
 11
73.98940711357099
 21
339.8506690864269
 31
0.0
  0
LINE
  5
14D
102
{ACAD_REACTORS
330
232
330
233
102
}
330
71
100
AcDbEntity
  8
0
  6
Continuous
 62
     2
100
AcDbLine
 10
74.41365172895487
 20
339.4264244710431
 30
0.0
 11
74.41365172895487
 21
333.8619137018429
 31
0.0
  0
LINE
  5
14E
102
{ACAD_REACTORS
330
232
330
233
102
}
330
71
100
AcDbEntity
  8
0
  6
Continuous
 62
     2
100
AcDbLine
 10
73.98940711357099
 20
333.4376690864596
 30
0.0
 11
68.51609502285419
 21
333.4376690864596
 31
0.0
  0
LINE
  5
14F
102
{ACAD_REACTORS
330
232
330
233
102
}
330
71
100
AcDbEntity
  8
0
  6
Continuous
 62
     2
100
AcDbLine
 10
70.9015398836869
 20
334.4659415650932
 30
0.0
 11
70.9015398836869
 21
335.9967124966248
 31
0.0
  0
LINE
  5
150
102
{ACAD_REACTORS
330
232
330
233
102
}
330
71
100
AcDbEntity
  8
0
  6
Continuous
 62
     2
100
AcDbLine
 10
70.9015398836869
 20
338.2183719887498
 30
0.0
 11
70.9015398836869
 21
338.8223966078103
 31
0.0
  0
LINE
  5
151
102
{ACAD_REACTORS
330
232
330
233
102
}
330
71
100
AcDbEntity
  8
0
  6
Continuous
 62
     2
100
AcDbLine
 10
69.10998969960067
 20
339.1381135308865
 30
0.0
 11
70.5858229606103
 21
339.1381135308865
 31
0.0
  0
LINE
  5
152
102
{ACAD_REACTORS
330
232
330
233
102
}
330
71
100
AcDbEntity
  8
0
  6
Continuous
 62
     2
100
AcDbLine
 10
68.79427277652499
 20
338.8223966078103
 30
0.0
 11
68.79427277652499
 21
334.4659415650932
 31
0.0
  0
LINE
  5
153
102
{ACAD_REACTORS
330
238
330
239
102
}
330
71
100
AcDbEntity
  8
0
  6
Continuous
 62
     2
100
AcDbLine
 10
76.1312732200758
 20
337.7399378037777
 30
0.0
 11
76.89004080785608
 21
337.7399378037777
 31
0.0
  0
LINE
  5
154
102
{ACAD_REACTORS
330
238
330
239
102
}
330
71
100
AcDbEntity
  8
0
  6
Continuous
 62
     2
100
AcDbLine
 10
74.89076880982168
 20
339.8506690864451
 30
0.0
 11
76.89004080785608
 21
339.8506690864451
 31
0.0
  0
LINE
  5
155
102
{ACAD_REACTORS
330
238
330
239
102
}
330
71
100
AcDbEntity
  8
0
  6
Continuous
 62
     2
100
AcDbLine
 10
74.89076880982168
 20
339.8506690864451
 30
0.0
 11
74.89076880982168
 21
336.7968595626339
 31
0.0
  0
LINE
  5
156
102
{ACAD_REACTORS
330
238
330
239
102
}
330
71
100
AcDbEntity
  8
0
  6
Continuous
 62
     2
100
AcDbLine
 10
76.1312732200758
 20
338.4818355916628
 30
0.0
 11
76.4485682816177
 21
338.4818355916628
 31
0.0
  0
LINE
  5
157
102
{ACAD_REACTORS
330
238
330
239
102
}
330
71
100
AcDbEntity
  8
0
  6
Continuous
 62
     2
100
AcDbLine
 10
76.1312732200758
 20
339.187563241005
 30
0.0
 11
76.4485682816177
 21
339.187563241005
 31
0.0
  0
LINE
  5
158
102
{ACAD_REACTORS
330
246
330
247
102
}
330
71
100
AcDbEntity
  8
0
  6
Continuous
 62
     2
100
AcDbLine
 10
79.280245953796
 20
338.7818357531105
 30
0.0
 11
80.32990353170348
 21
338.7818357531105
 31
0.0
  0
LINE
  5
159
102
{ACAD_REACTORS
330
246
330
247
102
}
330
71
100
AcDbEntity
  8
0
  6
Continuous
 62
     2
100
AcDbLine
 10
79.280245953796
 20
339.8506690864451
 30
0.0
 11
79.280245953796
 21
338.7818357531105
 31
0.0
  0
LINE
  5
15A
102
{ACAD_REACTORS
330
246
330
247
102
}
330
71
100
AcDbEntity
  8
0
  6
Continuous
 62
     2
100
AcDbLine
 10
78.0874532516294
 20
339.8506690864451
 30
0.0
 11
79.280245953796
 21
339.8506690864451
 31
0.0
  0
LINE
  5
15B
102
{ACAD_REACTORS
330
246
330
247
102
}
330
71
100
AcDbEntity
  8
0
  6
Continuous
 62
     2
100
AcDbLine
 10
79.280245953796
 20
336.7968595626339
 30
0.0
 11
78.0874532516294
 21
336.7968595626339
 31
0.0
  0
LINE
  5
15C
102
{ACAD_REACTORS
330
246
330
247
102
}
330
71
100
AcDbEntity
  8
0
  6
Continuous
 62
     2
100
AcDbLine
 10
80.32990353170348
 20
336.7968595626339
 30
0.0
 11
80.32990353170348
 21
337.9311316714777
 31
0.0
  0
LINE
  5
15D
102
{ACAD_REACTORS
330
246
330
247
102
}
330
71
100
AcDbEntity
  8
0
  6
Continuous
 62
     2
100
AcDbLine
 10
81.52269623386988
 20
336.7968595626339
 30
0.0
 11
80.32990353170348
 21
336.7968595626339
 31
0.0
  0
LINE
  5
15E
102
{ACAD_REACTORS
330
246
330
247
102
}
330
71
100
AcDbEntity
  8
0
  6
Continuous
 62
     2
100
AcDbLine
 10
81.52269623386988
 20
339.8506690864451
 30
0.0
 11
81.52269623386988
 21
336.7968595626339
 31
0.0
  0
LINE
  5
15F
102
{ACAD_REACTORS
330
234
330
235
102
}
330
71
100
AcDbEntity
  8
0
  6
Continuous
 62
     2
100
AcDbLine
 10
85.0056509241968
 20
337.9747575218181
 30
0.0
 11
86.34157875062448
 21
337.9747575218181
 31
0.0
  0
LINE
  5
160
102
{ACAD_REACTORS
330
234
330
235
102
}
330
71
100
AcDbEntity
  8
0
  6
Continuous
 62
     2
100
AcDbLine
 10
86.34157875062448
 20
337.9747575218181
 30
0.0
 11
86.34157875062448
 21
338.6727711272604
 31
0.0
  0
LINE
  5
161
102
{ACAD_REACTORS
330
234
330
235
102
}
330
71
100
AcDbEntity
  8
0
  6
Continuous
 62
     2
100
AcDbLine
 10
86.34157875062448
 20
338.6727711272604
 30
0.0
 11
85.0056509241968
 21
338.6727711272604
 31
0.0
  0
LINE
  5
162
102
{ACAD_REACTORS
330
234
330
235
102
}
330
71
100
AcDbEntity
  8
0
  6
Continuous
 62
     2
100
AcDbLine
 10
85.0056509241968
 20
338.6727711272604
 30
0.0
 11
85.0056509241968
 21
339.1526554810021
 31
0.0
  0
LINE
  5
163
102
{ACAD_REACTORS
330
244
330
245
102
}
330
71
100
AcDbEntity
  8
0
  6
Continuous
 62
     2
100
AcDbLine
 10
81.33169847063769
 20
333.4376690864596
 30
0.0
 11
82.52449117280528
 21
333.4376690864596
 31
0.0
  0
LINE
  5
164
102
{ACAD_REACTORS
330
244
330
245
102
}
330
71
100
AcDbEntity
  8
0
  6
Continuous
 62
     2
100
AcDbLine
 10
83.76499558305818
 20
333.4376690864596
 30
0.0
 11
84.95778828522458
 21
333.4376690864596
 31
0.0
  0
LINE
  5
165
102
{ACAD_REACTORS
330
244
330
245
102
}
330
71
100
AcDbEntity
  8
0
  6
Continuous
 62
     2
100
AcDbLine
 10
82.52449117280528
 20
336.4914786102707
 30
0.0
 11
81.33169847063769
 21
336.4914786102707
 31
0.0
  0
LINE
  5
166
102
{ACAD_REACTORS
330
244
330
245
102
}
330
71
100
AcDbEntity
  8
0
  6
Continuous
 62
     2
100
AcDbLine
 10
81.33169847063769
 20
336.4914786102707
 30
0.0
 11
81.33169847063769
 21
333.4376690864596
 31
0.0
  0
LINE
  5
167
102
{ACAD_REACTORS
330
242
330
243
102
}
330
71
100
AcDbEntity
  8
0
  6
Continuous
 62
     2
100
AcDbLine
 10
89.0134344034779
 20
339.8506690864451
 30
0.0
 11
89.0134344034779
 21
338.5418935762399
 31
0.0
  0
LINE
  5
168
102
{ACAD_REACTORS
330
242
330
243
102
}
330
71
100
AcDbEntity
  8
0
  6
Continuous
 62
     2
100
AcDbLine
 10
87.7729299932239
 20
339.8506690864451
 30
0.0
 11
86.58013729105738
 21
339.8506690864451
 31
0.0
  0
LINE
  5
169
102
{ACAD_REACTORS
330
242
330
243
102
}
330
71
100
AcDbEntity
  8
0
  6
Continuous
 62
     2
100
AcDbLine
 10
86.58013729105738
 20
339.8506690864451
 30
0.0
 11
86.58013729105738
 21
336.7968595626339
 31
0.0
  0
LINE
  5
16A
102
{ACAD_REACTORS
330
242
330
243
102
}
330
71
100
AcDbEntity
  8
0
  6
Continuous
 62
     2
100
AcDbLine
 10
87.7729299932239
 20
336.7968595626339
 30
0.0
 11
87.7729299932239
 21
338.1056350728386
 31
0.0
  0
LINE
  5
16B
102
{ACAD_REACTORS
330
240
330
241
102
}
330
71
100
AcDbEntity
  8
0
  6
Continuous
 62
     2
100
AcDbLine
 10
87.1048151491259
 20
333.4376690864596
 30
0.0
 11
87.1048151491259
 21
335.7062133041471
 31
0.0
  0
LINE
  5
16C
102
{ACAD_REACTORS
330
240
330
241
102
}
330
71
100
AcDbEntity
  8
0
  6
Continuous
 62
     2
100
AcDbLine
 10
87.1048151491259
 20
335.7062133041471
 30
0.0
 11
87.9159141865984
 21
335.7062133041471
 31
0.0
  0
LINE
  5
16D
102
{ACAD_REACTORS
330
240
330
241
102
}
330
71
100
AcDbEntity
  8
0
  6
Continuous
 62
     2
100
AcDbLine
 10
87.9159141865984
 20
335.7062133041471
 30
0.0
 11
87.9159141865984
 21
336.4914786102707
 31
0.0
  0
LINE
  5
16E
102
{ACAD_REACTORS
330
240
330
241
102
}
330
71
100
AcDbEntity
  8
0
  6
Continuous
 62
     2
100
AcDbLine
 10
87.9159141865984
 20
336.4914786102707
 30
0.0
 11
85.10092340948478
 21
336.4914786102707
 31
0.0
  0
LINE
  5
16F
102
{ACAD_REACTORS
330
240
330
241
102
}
330
71
100
AcDbEntity
  8
0
  6
Continuous
 62
     2
100
AcDbLine
 10
85.10092340948478
 20
335.7062133041471
 30
0.0
 11
85.91202244695938
 21
335.7062133041471
 31
0.0
  0
LINE
  5
170
102
{ACAD_REACTORS
330
23E
330
23F
102
}
330
71
100
AcDbEntity
  8
0
  6
Continuous
 62
     2
100
AcDbLine
 10
88.71042001239579
 20
333.9786296306775
 30
0.0
 11
89.8428615890696
 21
333.9786296306775
 31
0.0
  0
LINE
  5
171
102
{ACAD_REACTORS
330
23E
330
23F
102
}
330
71
100
AcDbEntity
  8
0
  6
Continuous
 62
     2
100
AcDbLine
 10
91.2948460527993
 20
333.4376690864596
 30
0.0
 11
90.05434164254538
 21
333.4376690864596
 31
0.0
  0
LINE
  5
172
102
{ACAD_REACTORS
330
23E
330
23F
102
}
330
71
100
AcDbEntity
  8
0
  6
Continuous
 62
     2
100
AcDbLine
 10
88.6563885956063
 20
336.4914786102707
 30
0.0
 11
87.258435548667
 21
333.4376690864596
 31
0.0
  0
LINE
  5
173
102
{ACAD_REACTORS
330
23E
330
23F
102
}
330
71
100
AcDbEntity
  8
0
  6
Continuous
 62
     2
100
AcDbLine
 10
88.49893995891998
 20
333.4376690864596
 30
0.0
 11
88.71042001239579
 21
333.9786296306775
 31
0.0
  0
LINE
  5
174
102
{ACAD_REACTORS
330
23E
330
23F
102
}
330
71
100
AcDbEntity
  8
0
  6
Continuous
 62
     2
100
AcDbLine
 10
88.97647556354079
 20
334.6591928959841
 30
0.0
 11
89.27664080073319
 21
335.4270078619708
 31
0.0
  0
LINE
  5
175
102
{ACAD_REACTORS
330
23C
330
23D
102
}
330
71
100
AcDbEntity
  8
0
  6
Continuous
 62
     2
100
AcDbLine
 10
90.4447856460784
 20
336.7968595626339
 30
0.0
 11
90.4447856460784
 21
339.8506690864451
 31
0.0
  0
LINE
  5
176
102
{ACAD_REACTORS
330
23C
330
23D
102
}
330
71
100
AcDbEntity
  8
0
  6
Continuous
 62
     2
100
AcDbLine
 10
91.6852900563313
 20
339.8506690864451
 30
0.0
 11
91.6852900563313
 21
336.7968595626339
 31
0.0
  0
LINE
  5
177
102
{ACAD_REACTORS
330
23C
330
23D
102
}
330
71
100
AcDbEntity
  8
0
  6
Continuous
 62
     2
100
AcDbLine
 10
90.4447856460784
 20
339.8506690864451
 30
0.0
 11
91.6852900563313
 21
339.8506690864451
 31
0.0
  0
LINE
  5
178
102
{ACAD_REACTORS
330
23A
330
23B
102
}
330
71
100
AcDbEntity
  8
0
  6
Continuous
 62
     2
100
AcDbLine
 10
93.90388448236209
 20
337.5845913479276
 30
0.0
 11
94.60047542042759
 21
336.7968595626339
 31
0.0
  0
LINE
  5
179
102
{ACAD_REACTORS
330
23A
330
23B
102
}
330
71
100
AcDbEntity
  8
0
  6
Continuous
 62
     2
100
AcDbLine
 10
94.60047542042759
 20
336.7968595626339
 30
0.0
 11
96.00319963817589
 21
336.7968595626339
 31
0.0
  0
LINE
  5
17A
102
{ACAD_REACTORS
330
23A
330
23B
102
}
330
71
100
AcDbEntity
  8
0
  6
Continuous
 62
     2
100
AcDbLine
 10
94.60524659123558
 20
338.3777185564089
 30
0.0
 11
96.00319963817589
 21
336.7968595626339
 31
0.0
  0
LINE
  5
17B
102
{ACAD_REACTORS
330
23A
330
23B
102
}
330
71
100
AcDbEntity
  8
0
  6
Continuous
 62
     2
100
AcDbLine
 10
94.60524659123558
 20
338.3777185564089
 30
0.0
 11
95.9077762220021
 21
339.8506690864451
 31
0.0
  0
LINE
  5
17C
102
{ACAD_REACTORS
330
23A
330
23B
102
}
330
71
100
AcDbEntity
  8
0
  6
Continuous
 62
     2
100
AcDbLine
 10
93.90388448236209
 20
339.1708457648896
 30
0.0
 11
94.50505200425488
 21
339.8506690864451
 31
0.0
  0
LINE
  5
17D
102
{ACAD_REACTORS
330
23A
330
23B
102
}
330
71
100
AcDbEntity
  8
0
  6
Continuous
 62
     2
100
AcDbLine
 10
93.30271696047029
 20
339.8506690864451
 30
0.0
 11
93.90388448236209
 21
339.1708457648896
 31
0.0
  0
LINE
  5
17E
102
{ACAD_REACTORS
330
23A
330
23B
102
}
330
71
100
AcDbEntity
  8
0
  6
Continuous
 62
     2
100
AcDbLine
 10
93.30271696047029
 20
339.8506690864451
 30
0.0
 11
91.899992742721
 21
339.8506690864451
 31
0.0
  0
LINE
  5
17F
102
{ACAD_REACTORS
330
230
330
231
102
}
330
71
100
AcDbEntity
  8
0
  6
Continuous
 62
     2
100
AcDbLine
 10
93.9993078985348
 20
333.4376690864596
 30
0.0
 11
95.1921006007025
 21
333.4376690864596
 31
0.0
  0
LINE
  5
180
102
{ACAD_REACTORS
330
230
330
231
102
}
330
71
100
AcDbEntity
  8
0
  6
Continuous
 62
     2
100
AcDbLine
 10
95.1921006007025
 20
333.4376690864596
 30
0.0
 11
95.1921006007025
 21
335.7062133041471
 31
0.0
  0
LINE
  5
181
102
{ACAD_REACTORS
330
230
330
231
102
}
330
71
100
AcDbEntity
  8
0
  6
Continuous
 62
     2
100
AcDbLine
 10
95.1921006007025
 20
335.7062133041471
 30
0.0
 11
96.00319963817589
 21
335.7062133041471
 31
0.0
  0
LINE
  5
182
102
{ACAD_REACTORS
330
230
330
231
102
}
330
71
100
AcDbEntity
  8
0
  6
Continuous
 62
     2
100
AcDbLine
 10
96.00319963817589
 20
335.7062133041471
 30
0.0
 11
96.00319963817589
 21
336.4914786102707
 31
0.0
  0
LINE
  5
183
102
{ACAD_REACTORS
330
230
330
231
102
}
330
71
100
AcDbEntity
  8
0
  6
Continuous
 62
     2
100
AcDbLine
 10
92.6182541195472
 20
336.4914786102702
 30
0.0
 11
96.00319963817589
 21
336.4914786102707
 31
0.0
  0
LINE
  5
184
102
{ACAD_REACTORS
330
230
330
231
102
}
330
71
100
AcDbEntity
  8
0
  6
Continuous
 62
     2
100
AcDbLine
 10
93.9993078985348
 20
335.7062133041471
 30
0.0
 11
93.9993078985348
 21
333.4376690864596
 31
0.0
  0
LINE
  5
185
102
{ACAD_REACTORS
330
232
330
233
102
}
330
71
100
AcDbEntity
  8
0
  6
Continuous
 62
     2
100
AcDbLine
 10
71.36982146305559
 20
335.4165492360241
 30
0.0
 11
71.36982146305559
 21
335.9984006427192
 31
0.0
  0
LINE
  5
186
102
{ACAD_REACTORS
330
232
330
233
102
}
330
71
100
AcDbEntity
  8
0
  6
Continuous
 62
     2
100
AcDbLine
 10
71.36982146305559
 20
338.2166838426554
 30
0.0
 11
71.36982146305559
 21
338.8222191311622
 31
0.0
  0
LINE
  5
187
330
71
100
AcDbEntity
  8
1
  6
Continuous
 62
     6
100
AcDbLine
 10
49.90000004765881
 20
326.1441690864433
 30
0.0
 11
63.85519552090878
 21
326.1441690864432
 31
0.0
  0
LINE
  5
188
330
71
100
AcDbEntity
  8
1
  6
Continuous
 62
     6
100
AcDbLine
 10
-0.09999995234142
 20
326.1441690864433
 30
0.0
 11
-5.14480447909119
 21
326.1441690864433
 31
0.0
  0
LINE
  5
189
330
71
100
AcDbEntity
  8
1
  6
Continuous
 62
     6
100
AcDbLine
 10
149.9000000476588
 20
326.1441690864433
 30
0.0
 11
193.4000000476588
 21
326.1441690864433
 31
0.0
  0
LINE
  5
18A
330
71
100
AcDbEntity
  8
1
  6
Continuous
 62
     6
100
AcDbLine
 10
99.90000004765878
 20
326.1441690864433
 30
0.0
 11
82.0551955209088
 21
326.1441690864433
 31
0.0
  0
LINE
  5
18B
330
71
100
AcDbEntity
  8
1
  6
Continuous
 62
     2
100
AcDbLine
 10
193.4000000476588
 20
326.1441690864433
 30
0.0
 11
198.4000000476578
 21
326.1441690864433
 31
0.0
  0
LINE
  5
18C
330
71
100
AcDbEntity
  8
1
  6
Continuous
 62
     2
100
AcDbLine
 10
193.4000000476588
 20
326.1441690864433
 30
0.0
 11
193.4000000476588
 21
321.1441690864432
 31
0.0
  0
LINE
  5
18D
330
71
100
AcDbEntity
  8
1
  6
Continuous
 62
     6
100
AcDbLine
 10
63.85519552090878
 20
343.1441690864433
 30
0.0
 11
100.2551955209087
 21
343.1441690864433
 31
0.0
  0
LINE
  5
18E
330
71
100
AcDbEntity
  8
1
  6
Continuous
 62
     2
100
AcDbLine
 10
198.4000000476578
 20
321.1441690864432
 30
0.0
 11
198.4000000476578
 21
326.1441690864433
 31
0.0
  0
LINE
  5
18F
330
71
100
AcDbEntity
  8
1
  6
Continuous
 62
     2
100
AcDbLine
 10
198.4000000476578
 20
321.1441690864432
 30
0.0
 11
193.4000000476588
 21
321.1441690864432
 31
0.0
  0
LINE
  5
190
330
71
100
AcDbEntity
  8
1
  6
Continuous
 62
     2
100
AcDbLine
 10
193.4000000476588
 20
321.1441690864432
 30
0.0
 11
149.9000000476588
 21
321.1441690864432
 31
0.0
  0
LINE
  5
191
330
71
100
AcDbEntity
  8
1
  6
Continuous
 62
     6
100
AcDbLine
 10
193.4000000476605
 20
343.1441690864433
 30
0.0
 11
193.4000000476597
 21
376.1441690864434
 31
0.0
  0
LINE
  5
192
330
71
100
AcDbEntity
  8
1
  6
Continuous
 62
     2
100
AcDbLine
 10
198.4000000476578
 20
531.1441690864433
 30
0.0
 11
49.90000004765881
 21
531.1441690864433
 31
0.0
  0
LINE
  5
193
330
71
100
AcDbEntity
  8
1
  6
Continuous
 62
     6
100
AcDbLine
 10
193.4000000476578
 20
511.1441690864433
 30
0.0
 11
-93.59999995234028
 21
511.1441690864433
 31
0.0
  0
LINE
  5
194
330
71
100
AcDbEntity
  8
1
  6
Continuous
 62
     2
100
AcDbLine
 10
193.4000000476597
 20
376.1441690864434
 30
0.0
 11
198.4000000476578
 21
376.1441690864434
 31
0.0
  0
LINE
  5
195
330
71
100
AcDbEntity
  8
1
  6
Continuous
 62
     6
100
AcDbLine
 10
193.4000000476597
 20
376.1441690864434
 30
0.0
 11
193.4000000476592
 21
426.1441690864432
 31
0.0
  0
LINE
  5
196
330
71
100
AcDbEntity
  8
1
  6
Continuous
 62
     2
100
AcDbLine
 10
198.4000000476578
 20
376.1441690864434
 30
0.0
 11
198.4000000476578
 21
426.1441690864432
 31
0.0
  0
LINE
  5
197
330
71
100
AcDbEntity
  8
1
  6
Continuous
 62
     2
100
AcDbLine
 10
193.4000000476592
 20
426.1441690864432
 30
0.0
 11
198.4000000476578
 21
426.1441690864432
 31
0.0
  0
LINE
  5
198
330
71
100
AcDbEntity
  8
1
  6
Continuous
 62
     6
100
AcDbLine
 10
193.4000000476592
 20
426.1441690864432
 30
0.0
 11
193.400000047658
 21
476.1441690864433
 31
0.0
  0
LINE
  5
199
330
71
100
AcDbEntity
  8
1
  6
Continuous
 62
     2
100
AcDbLine
 10
198.4000000476578
 20
426.1441690864432
 30
0.0
 11
198.4000000476578
 21
476.1441690864433
 31
0.0
  0
LINE
  5
19A
330
71
100
AcDbEntity
  8
1
  6
Continuous
 62
     2
100
AcDbLine
 10
193.400000047658
 20
476.1441690864433
 30
0.0
 11
198.4000000476578
 21
476.1441690864433
 31
0.0
  0
LINE
  5
19B
330
71
100
AcDbEntity
  8
1
  6
Continuous
 62
     6
100
AcDbLine
 10
193.400000047658
 20
476.1441690864433
 30
0.0
 11
193.4000000476578
 21
511.1441690864433
 31
0.0
  0
LINE
  5
19C
330
71
100
AcDbEntity
  8
1
  6
Continuous
 62
     2
100
AcDbLine
 10
198.4000000476578
 20
476.1441690864433
 30
0.0
 11
198.4000000476578
 21
531.1441690864433
 31
0.0
  0
LINE
  5
19D
330
71
100
AcDbEntity
  8
1
  6
Continuous
 62
     2
100
AcDbLine
 10
198.4000000476578
 20
326.1441690864433
 30
0.0
 11
198.4000000476578
 21
376.1441690864434
 31
0.0
  0
LINE
  5
19E
330
71
100
AcDbEntity
  8
1
  6
Continuous
 62
     2
100
AcDbLine
 10
49.90000004765881
 20
531.1441690864433
 30
0.0
 11
-98.59999995234028
 21
531.1441690864433
 31
0.0
  0
LINE
  5
19F
330
71
100
AcDbEntity
  8
1
  6
Continuous
 62
     2
100
AcDbLine
 10
49.90000004765881
 20
531.1441690864433
 30
0.0
 11
49.90000004765881
 21
521.935477241742
 31
0.0
  0
LINE
  5
1A0
330
71
100
AcDbEntity
  8
1
  6
Continuous
 62
     2
100
AcDbLine
 10
-98.59999995234028
 20
321.1441690864432
 30
0.0
 11
-93.59999995233932
 21
321.1441690864432
 31
0.0
  0
LINE
  5
1A1
330
71
100
AcDbEntity
  8
1
  6
Continuous
 62
     2
100
AcDbLine
 10
-98.59999995234028
 20
531.1441690864433
 30
0.0
 11
-98.59999995234028
 21
476.1441690864433
 31
0.0
  0
LINE
  5
1A2
330
71
100
AcDbEntity
  8
1
  6
Continuous
 62
     6
100
AcDbLine
 10
-93.59999995234028
 20
511.1441690864433
 30
0.0
 11
-93.59999995234023
 21
476.1441690864433
 31
0.0
  0
LINE
  5
1A3
330
71
100
AcDbEntity
  8
1
  6
Continuous
 62
     2
100
AcDbLine
 10
-98.59999995234028
 20
476.1441690864433
 30
0.0
 11
-93.59999995234023
 21
476.1441690864433
 31
0.0
  0
LINE
  5
1A4
330
71
100
AcDbEntity
  8
1
  6
Continuous
 62
     2
100
AcDbLine
 10
-98.59999995234028
 20
476.1441690864433
 30
0.0
 11
-98.59999995234028
 21
426.1441690864432
 31
0.0
  0
LINE
  5
1A5
330
71
100
AcDbEntity
  8
1
  6
Continuous
 62
     6
100
AcDbLine
 10
-93.59999995234023
 20
476.1441690864433
 30
0.0
 11
-93.59999995233972
 21
426.1441690864432
 31
0.0
  0
LINE
  5
1A6
330
71
100
AcDbEntity
  8
1
  6
Continuous
 62
     2
100
AcDbLine
 10
-98.59999995234028
 20
426.1441690864432
 30
0.0
 11
-93.59999995233972
 21
426.1441690864432
 31
0.0
  0
LINE
  5
1A7
330
71
100
AcDbEntity
  8
1
  6
Continuous
 62
     2
100
AcDbLine
 10
-98.59999995234028
 20
426.1441690864432
 30
0.0
 11
-98.59999995234028
 21
376.1441690864434
 31
0.0
  0
LINE
  5
1A8
330
71
100
AcDbEntity
  8
1
  6
Continuous
 62
     6
100
AcDbLine
 10
-93.59999995233972
 20
426.1441690864432
 30
0.0
 11
-93.59999995233949
 21
376.1441690864434
 31
0.0
  0
LINE
  5
1A9
330
71
100
AcDbEntity
  8
1
  6
Continuous
 62
     2
100
AcDbLine
 10
-98.59999995234028
 20
376.1441690864434
 30
0.0
 11
-93.59999995233949
 21
376.1441690864434
 31
0.0
  0
LINE
  5
1AA
330
71
100
AcDbEntity
  8
1
  6
Continuous
 62
     2
100
AcDbLine
 10
-98.59999995234028
 20
376.1441690864434
 30
0.0
 11
-98.59999995234028
 21
326.1441690864433
 31
0.0
  0
LINE
  5
1AB
330
71
100
AcDbEntity
  8
1
  6
Continuous
 62
     6
100
AcDbLine
 10
-93.59999995233949
 20
376.1441690864434
 30
0.0
 11
-93.59999995233932
 21
326.1441690864433
 31
0.0
  0
LINE
  5
1AC
330
71
100
AcDbEntity
  8
1
  6
Continuous
 62
     2
100
AcDbLine
 10
-50.09999995234119
 20
321.1441690864432
 30
0.0
 11
-50.09999995234119
 21
326.1441690864433
 31
0.0
  0
LINE
  5
1AD
330
71
100
AcDbEntity
  8
1
  6
Continuous
 62
     2
100
AcDbLine
 10
-50.09999995234119
 20
321.1441690864432
 30
0.0
 11
-0.09999995234142
 21
321.1441690864432
 31
0.0
  0
LINE
  5
1AE
330
71
100
AcDbEntity
  8
1
  6
Continuous
 62
     2
100
AcDbLine
 10
-0.09999995234142
 20
321.1441690864432
 30
0.0
 11
-0.09999995234142
 21
326.1441690864433
 31
0.0
  0
LINE
  5
1AF
330
71
100
AcDbEntity
  8
1
  6
Continuous
 62
     2
100
AcDbLine
 10
-0.09999995234142
 20
321.1441690864432
 30
0.0
 11
49.90000004765881
 21
321.1441690864432
 31
0.0
  0
LINE
  5
1B0
330
71
100
AcDbEntity
  8
1
  6
Continuous
 62
     2
100
AcDbLine
 10
49.90000004765881
 20
321.1441690864432
 30
0.0
 11
49.90000004765881
 21
326.1441690864433
 31
0.0
  0
LINE
  5
1B1
330
71
100
AcDbEntity
  8
1
  6
Continuous
 62
     2
100
AcDbLine
 10
49.90000004765881
 20
321.1441690864432
 30
0.0
 11
99.90000004765878
 21
321.1441690864432
 31
0.0
  0
LINE
  5
1B2
330
71
100
AcDbEntity
  8
1
  6
Continuous
 62
     2
100
AcDbLine
 10
99.90000004765878
 20
321.1441690864432
 30
0.0
 11
99.90000004765878
 21
326.1441690864433
 31
0.0
  0
LINE
  5
1B3
330
71
100
AcDbEntity
  8
1
  6
Continuous
 62
     2
100
AcDbLine
 10
149.9000000476588
 20
321.1441690864432
 30
0.0
 11
149.9000000476588
 21
326.1441690864433
 31
0.0
  0
LINE
  5
1B4
330
71
100
AcDbEntity
  8
1
  6
Continuous
 62
     2
100
AcDbLine
 10
149.9000000476588
 20
321.1441690864432
 30
0.0
 11
99.90000004765878
 21
321.1441690864432
 31
0.0
  0
LINE
  5
1B5
330
71
100
AcDbEntity
  8
1
  6
Continuous
 62
     2
100
AcDbLine
 10
-93.59999995233932
 20
326.1441690864433
 30
0.0
 11
-93.59999995233932
 21
321.1441690864432
 31
0.0
  0
LINE
  5
1B6
330
71
100
AcDbEntity
  8
1
  6
Continuous
 62
     2
100
AcDbLine
 10
-93.59999995233932
 20
321.1441690864432
 30
0.0
 11
-50.09999995234119
 21
321.1441690864432
 31
0.0
  0
LINE
  5
1B7
330
71
100
AcDbEntity
  8
1
  6
Continuous
 62
     2
100
AcDbLine
 10
-93.59999995233932
 20
326.1441690864433
 30
0.0
 11
-98.59999995234028
 21
326.1441690864433
 31
0.0
  0
LINE
  5
1B8
330
71
100
AcDbEntity
  8
1
  6
Continuous
 62
     2
100
AcDbLine
 10
-98.59999995234028
 20
326.1441690864433
 30
0.0
 11
-98.59999995234028
 21
321.1441690864432
 31
0.0
  0
LINE
  5
1B9
330
71
100
AcDbEntity
  8
1
  6
Continuous
 62
     6
100
AcDbLine
 10
193.4000000476588
 20
326.1441690864433
 30
0.0
 11
193.4000000476601
 21
334.6441690864433
 31
0.0
  0
LINE
  5
1BA
330
71
100
AcDbEntity
  8
1
  6
Continuous
 62
     6
100
AcDbLine
 10
100.2551955209087
 20
326.1441690864432
 30
0.0
 11
149.9000000476588
 21
326.1441690864433
 31
0.0
  0
LINE
  5
1BB
330
71
100
AcDbEntity
  8
1
  6
Continuous
 62
     6
100
AcDbLine
 10
-52.39999995234143
 20
326.1441690864432
 30
0.0
 11
-50.09999995234119
 21
326.1441690864433
 31
0.0
  0
LINE
  5
1BC
330
71
100
AcDbEntity
  8
1
  6
Continuous
 62
     6
100
AcDbLine
 10
49.90000004765881
 20
326.1441690864433
 30
0.0
 11
-0.09999995234142
 21
326.1441690864433
 31
0.0
  0
LINE
  5
1BD
330
71
100
AcDbEntity
  8
1
  6
Continuous
 62
     7
100
AcDbLine
 10
63.85519552090878
 20
343.1441690864433
 30
0.0
 11
63.85519552090878
 21
330.3941690864432
 31
0.0
  0
LINE
  5
1BE
330
71
100
AcDbEntity
  8
1
  6
Continuous
 62
     7
100
AcDbLine
 10
100.2551955209087
 20
343.1441690864433
 30
0.0
 11
100.2551955209087
 21
330.3941690864433
 31
0.0
  0
LINE
  5
1BF
330
71
100
AcDbEntity
  8
1
  6
Continuous
 62
     6
100
AcDbLine
 10
-52.39999995234143
 20
326.1441690864432
 30
0.0
 11
-58.59999995233943
 21
326.1441690864433
 31
0.0
  0
LINE
  5
1C0
330
71
100
AcDbEntity
  8
1
  6
Continuous
 62
     6
100
AcDbLine
 10
100.2551955209087
 20
326.1441690864432
 30
0.0
 11
99.90000004765878
 21
326.1441690864433
 31
0.0
  0
LINE
  5
1C1
330
71
100
AcDbEntity
  8
1
  6
Continuous
 62
     6
100
AcDbLine
 10
193.4000000476605
 20
343.1441690864433
 30
0.0
 11
193.4000000476601
 21
334.6441690864433
 31
0.0
  0
LINE
  5
1C2
330
71
100
AcDbEntity
  8
1
  6
Continuous
 62
     6
100
AcDbLine
 10
-58.59999995233943
 20
326.1441690864433
 30
0.0
 11
-93.59999995233932
 21
326.1441690864433
 31
0.0
  0
LINE
  5
1C3
330
71
100
AcDbEntity
  8
1
  6
Continuous
 62
     2
100
AcDbLine
 10
68.09185040747138
 20
348.5191690864432
 30
0.0
 11
73.09185040747138
 21
349.7691690864432
 31
0.0
  0
LINE
  5
1C4
330
71
100
AcDbEntity
  8
1
  6
Continuous
 62
     2
100
AcDbLine
 10
68.09185040747138
 20
346.0191690864432
 30
0.0
 11
68.09185040747138
 21
348.5191690864432
 31
0.0
  0
LINE
  5
1C5
330
71
100
AcDbEntity
  8
1
  6
Continuous
 62
     2
100
AcDbLine
 10
73.09185040747138
 20
344.7691690864432
 30
0.0
 11
68.09185040747138
 21
346.0191690864432
 31
0.0
  0
LINE
  5
1C6
330
71
100
AcDbEntity
  8
1
  6
Continuous
 62
     2
100
AcDbLine
 10
73.09185040747138
 20
349.7691690864432
 30
0.0
 11
73.09185040747138
 21
344.7691690864432
 31
0.0
  0
LINE
  5
1C7
330
71
100
AcDbEntity
  8
1
  6
Continuous
 62
     7
100
AcDbLine
 10
63.85519552090878
 20
330.3941690864432
 30
0.0
 11
82.0551955209088
 21
330.3941690864433
 31
0.0
  0
LINE
  5
1C8
330
71
100
AcDbEntity
  8
1
  6
Continuous
 62
     7
100
AcDbLine
 10
63.85519552090878
 20
330.3941690864432
 30
0.0
 11
63.85519552090878
 21
326.1441690864432
 31
0.0
  0
LINE
  5
1C9
330
71
100
AcDbEntity
  8
1
  6
Continuous
 62
     7
100
AcDbLine
 10
100.2551955209087
 20
330.3941690864433
 30
0.0
 11
100.2551955209087
 21
326.1441690864432
 31
0.0
  0
LINE
  5
1CA
330
71
100
AcDbEntity
  8
1
  6
Continuous
 62
     7
100
AcDbLine
 10
82.0551955209088
 20
330.3941690864433
 30
0.0
 11
82.0551955209088
 21
326.1441690864433
 31
0.0
  0
LINE
  5
1CB
330
71
100
AcDbEntity
  8
1
  6
Continuous
 62
     6
100
AcDbLine
 10
82.0551955209088
 20
326.1441690864433
 30
0.0
 11
63.85519552090878
 21
326.1441690864432
 31
0.0
  0
LINE
  5
1CC
330
71
100
AcDbEntity
  8
1
  6
Continuous
 62
     7
100
AcDbLine
 10
82.0551955209088
 20
330.3941690864433
 30
0.0
 11
100.2551955209087
 21
330.3941690864433
 31
0.0
  0
LINE
  5
1CD
330
71
100
AcDbEntity
  8
1
  6
Continuous
 62
     6
100
AcDbLine
 10
63.85519552090878
 20
351.6441690864433
 30
0.0
 11
193.4000000476605
 21
351.6441690864433
 31
0.0
  0
ARC
  5
1CE
102
{ACAD_REACTORS
330
236
330
237
102
}
330
71
100
AcDbEntity
  8
0
  6
Continuous
 62
     2
100
AcDbCircle
 10
79.24684351986878
 20
334.9645738483649
 30
0.0
 40
0.7717997786797298
100
AcDbArc
 50
321.8795802028384
 51
38.12041979715163
  0
ARC
  5
1CF
102
{ACAD_REACTORS
330
236
330
237
102
}
330
71
100
AcDbEntity
  8
0
  6
Continuous
 62
     2
100
AcDbCircle
 10
79.44658355621519
 20
334.8078426702449
 30
0.0
 40
0.5179085730137529
100
AcDbArc
 50
218.1204197971956
 51
321.8795802027985
  0
ARC
  5
1D0
102
{ACAD_REACTORS
330
236
330
237
102
}
330
71
100
AcDbEntity
  8
0
  6
Continuous
 62
     2
100
AcDbCircle
 10
79.64632359256129
 20
334.9645738483649
 30
0.0
 40
0.7717997786794457
100
AcDbArc
 50
141.879580202838
 51
218.120419797172
  0
ARC
  5
1D1
102
{ACAD_REACTORS
330
236
330
237
102
}
330
71
100
AcDbEntity
  8
0
  6
Continuous
 62
     2
100
AcDbCircle
 10
79.44658355621519
 20
335.1213050264854
 30
0.0
 40
0.5179085730132998
100
AcDbArc
 50
38.12041979714704
 51
141.8795802028588
  0
ARC
  5
1D2
102
{ACAD_REACTORS
330
22E
330
22F
102
}
330
71
100
AcDbEntity
  8
0
  6
Continuous
 62
     2
100
AcDbCircle
 10
76.3845694206513
 20
333.5541074829567
 30
0.0
 40
2.227384008973501
100
AcDbArc
 50
58.06909105004111
 51
71.55192388186745
  0
ARC
  5
1D3
102
{ACAD_REACTORS
330
22E
330
22F
102
}
330
71
100
AcDbEntity
  8
0
  6
Continuous
 62
     2
100
AcDbCircle
 10
76.64629712161008
 20
335.1696452777039
 30
0.0
 40
0.5115800601948517
100
AcDbArc
 50
113.3722778882004
 51
151.4785267423044
  0
ARC
  5
1D4
102
{ACAD_REACTORS
330
22E
330
22F
102
}
330
71
100
AcDbEntity
  8
0
  6
Continuous
 62
     2
100
AcDbCircle
 10
77.02365437969038
 20
334.9645738483649
 30
0.0
 40
0.9410597353332545
100
AcDbArc
 50
151.4785267422669
 51
208.5214732577088
  0
ARC
  5
1D5
102
{ACAD_REACTORS
330
22E
330
22F
102
}
330
71
100
AcDbEntity
  8
0
  6
Continuous
 62
     2
100
AcDbCircle
 10
76.22669654555838
 20
338.2772547936213
 30
0.0
 40
4.852596863498166
100
AcDbArc
 50
275.1581447696249
 51
285.9799912583529
  0
ARC
  5
1D6
102
{ACAD_REACTORS
330
22E
330
22F
102
}
330
71
100
AcDbEntity
  8
0
  6
Continuous
 62
     2
100
AcDbCircle
 10
76.51555264029429
 20
335.0773642103997
 30
0.0
 40
1.63969512393938
100
AcDbArc
 50
195.0618917770886
 51
275.1581447696395
  0
ARC
  5
1D7
102
{ACAD_REACTORS
330
22E
330
22F
102
}
330
71
100
AcDbEntity
  8
0
  6
Continuous
 62
     2
100
AcDbCircle
 10
76.09642479683149
 20
334.9645738483649
 30
0.0
 40
1.205656168390929
100
AcDbArc
 50
164.9381082228791
 51
195.0618917770948
  0
ARC
  5
1D8
102
{ACAD_REACTORS
330
22E
330
22F
102
}
330
71
100
AcDbEntity
  8
0
  6
Continuous
 62
     2
100
AcDbCircle
 10
76.51555264029429
 20
334.85178348633
 30
0.0
 40
1.639695123940507
100
AcDbArc
 50
84.84185523036236
 51
164.9381082228884
  0
ARC
  5
1D9
102
{ACAD_REACTORS
330
232
330
233
102
}
330
71
100
AcDbEntity
  8
0
  6
Continuous
 62
     2
100
AcDbCircle
 10
71.68553838613238
 20
335.9984006427192
 30
0.0
 40
0.3157169230764815
100
AcDbArc
 50
115.3740086783563
 51
180.0
  0
ARC
  5
1DA
102
{ACAD_REACTORS
330
232
330
233
102
}
330
71
100
AcDbEntity
  8
0
  6
Continuous
 62
     2
100
AcDbCircle
 10
71.68553838613238
 20
338.2166838426554
 30
0.0
 40
0.315716923076792
100
AcDbArc
 50
180.0
 51
244.6259913216482
  0
ARC
  5
1DB
102
{ACAD_REACTORS
330
232
330
233
102
}
330
71
100
AcDbEntity
  8
0
  6
Continuous
 62
     2
100
AcDbCircle
 10
71.6911545214424
 20
337.1193841835931
 30
0.0
 40
2.018561131933266
100
AcDbArc
 50
269.8110329575858
 51
90.18896704241416
  0
ARC
  5
1DC
102
{ACAD_REACTORS
330
232
330
233
102
}
330
71
100
AcDbEntity
  8
0
  6
Continuous
 62
     2
100
AcDbCircle
 10
71.68553838613238
 20
335.4165492360241
 30
0.0
 40
0.315716923076792
100
AcDbArc
 50
180.0
 51
269.8110329574541
  0
ARC
  5
1DD
102
{ACAD_REACTORS
330
230
330
231
102
}
330
71
100
AcDbEntity
  8
0
  6
Continuous
 62
     2
100
AcDbCircle
 10
92.74899860086299
 20
335.1696452777039
 30
0.0
 40
0.5115800601944143
100
AcDbArc
 50
109.3371432194853
 51
151.4785267424253
  0
ARC
  5
1DE
102
{ACAD_REACTORS
330
230
330
231
102
}
330
71
100
AcDbEntity
  8
0
  6
Continuous
 62
     2
100
AcDbCircle
 10
92.74899860086299
 20
334.7595024190264
 30
0.0
 40
0.5115800601959944
100
AcDbArc
 50
208.521473257681
 51
246.6277221118424
  0
ARC
  5
1DF
102
{ACAD_REACTORS
330
230
330
231
102
}
330
71
100
AcDbEntity
  8
0
  6
Continuous
 62
     2
100
AcDbCircle
 10
92.1991262760856
 20
334.9645738483649
 30
0.0
 40
1.205656168392988
100
AcDbArc
 50
164.9381082229054
 51
195.0618917770972
  0
ARC
  5
1E0
102
{ACAD_REACTORS
330
230
330
231
102
}
330
71
100
AcDbEntity
  8
0
  6
Continuous
 62
     2
100
AcDbCircle
 10
92.6182541195472
 20
334.85178348633
 30
0.0
 40
1.639695123940157
100
AcDbArc
 50
90.0
 51
164.9381082228969
  0
ARC
  5
1E1
102
{ACAD_REACTORS
330
234
330
235
102
}
330
71
100
AcDbEntity
  8
0
  6
Continuous
 62
     2
100
AcDbCircle
 10
83.19125902684348
 20
338.3237643245392
 30
0.0
 40
1.526904761905939
100
AcDbArc
 50
90.0
 51
270.0
  0
ARC
  5
1E2
102
{ACAD_REACTORS
330
238
330
239
102
}
330
71
100
AcDbEntity
  8
0
  6
Continuous
 62
     2
100
AcDbCircle
 10
76.4485682816177
 20
338.8346994163339
 30
0.0
 40
0.3528638246710898
100
AcDbArc
 50
270.0
 51
90.0
  0
ARC
  5
1E3
102
{ACAD_REACTORS
330
232
330
233
102
}
330
71
100
AcDbEntity
  8
0
  6
Continuous
 62
     2
100
AcDbCircle
 10
69.10998969960067
 20
338.8223966078103
 30
0.0
 40
0.315716923076252
100
AcDbArc
 50
90.0
 51
180.0
  0
ARC
  5
1E4
102
{ACAD_REACTORS
330
232
330
233
102
}
330
71
100
AcDbEntity
  8
0
  6
Continuous
 62
     2
100
AcDbCircle
 10
71.10840740818529
 20
337.1075422426876
 30
0.0
 40
0.9118975235575889
100
AcDbArc
 50
115.194410648529
 51
244.8055893514878
  0
ARC
  5
1E5
102
{ACAD_REACTORS
330
232
330
233
102
}
330
71
100
AcDbEntity
  8
0
  6
Continuous
 62
     2
100
AcDbCircle
 10
70.5858229606103
 20
335.9967124966248
 30
0.0
 40
0.315716923076593
100
AcDbArc
 50
0.0
 51
64.80558935146027
  0
ARC
  5
1E6
102
{ACAD_REACTORS
330
232
330
233
102
}
330
71
100
AcDbEntity
  8
0
  6
Continuous
 62
     2
100
AcDbCircle
 10
68.51609502285419
 20
333.8619137018429
 30
0.0
 40
0.4242446153828041
100
AcDbArc
 50
180.0
 51
270.0
  0
ARC
  5
1E7
102
{ACAD_REACTORS
330
234
330
235
102
}
330
71
100
AcDbEntity
  8
0
  6
Continuous
 62
     2
100
AcDbCircle
 10
83.40753103700868
 20
338.4804955026597
 30
0.0
 40
0.5179085730135266
100
AcDbArc
 50
38.12041979714334
 51
141.8795802028489
  0
ARC
  5
1E8
102
{ACAD_REACTORS
330
234
330
235
102
}
330
71
100
AcDbEntity
  8
0
  6
Continuous
 62
     2
100
AcDbCircle
 10
83.60727107335498
 20
338.3237643245392
 30
0.0
 40
0.7717997786797075
100
AcDbArc
 50
141.8795802028371
 51
218.1204197971529
  0
ARC
  5
1E9
102
{ACAD_REACTORS
330
236
330
237
102
}
330
71
100
AcDbEntity
  8
0
  6
Continuous
 62
     2
100
AcDbCircle
 10
79.44658355621519
 20
335.5031488586682
 30
0.0
 40
2.065479772208534
100
AcDbArc
 50
242.4518518243405
 51
297.5481481756867
  0
ARC
  5
1EA
102
{ACAD_REACTORS
330
236
330
237
102
}
330
71
100
AcDbEntity
  8
0
  6
Continuous
 62
     2
100
AcDbCircle
 10
79.44658355621519
 20
334.4259988380621
 30
0.0
 40
2.065479772208543
100
AcDbArc
 50
62.451851824306
 51
117.5481481756667
  0
ARC
  5
1EB
102
{ACAD_REACTORS
330
236
330
237
102
}
330
71
100
AcDbEntity
  8
0
  6
Continuous
 62
     2
100
AcDbCircle
 10
79.16564366438189
 20
334.9645738483649
 30
0.0
 40
1.458034083651465
100
AcDbArc
 50
117.548148175663
 51
242.451851824338
  0
ARC
  5
1EC
102
{ACAD_REACTORS
330
236
330
237
102
}
330
71
100
AcDbEntity
  8
0
  6
Continuous
 62
     2
100
AcDbCircle
 10
79.72752344804849
 20
334.9645738483649
 30
0.0
 40
1.458034083652028
100
AcDbArc
 50
297.5481481757005
 51
62.45185182429842
  0
ARC
  5
1ED
102
{ACAD_REACTORS
330
234
330
235
102
}
330
71
100
AcDbEntity
  8
0
  6
Continuous
 62
     2
100
AcDbCircle
 10
83.40753103700868
 20
338.1670331464188
 30
0.0
 40
0.5179085730134372
100
AcDbArc
 50
218.1204197971511
 51
321.8795802028566
  0
ARC
  5
1EE
102
{ACAD_REACTORS
330
234
330
235
102
}
330
71
100
AcDbEntity
  8
0
  6
Continuous
 62
     2
100
AcDbCircle
 10
83.2077910006625
 20
338.3237643245392
 30
0.0
 40
0.7717997786796023
100
AcDbArc
 50
321.8795802028471
 51
38.12041979716289
  0
ARC
  5
1EF
102
{ACAD_REACTORS
330
232
330
233
102
}
330
71
100
AcDbEntity
  8
0
  6
Continuous
 62
     2
100
AcDbCircle
 10
73.98940711357099
 20
333.8619137018429
 30
0.0
 40
0.4242446153833157
100
AcDbArc
 50
270.0
 51
0.0
  0
ARC
  5
1F0
102
{ACAD_REACTORS
330
232
330
233
102
}
330
71
100
AcDbEntity
  8
0
  6
Continuous
 62
     2
100
AcDbCircle
 10
73.98940711357099
 20
339.4264244710431
 30
0.0
 40
0.4242446153838841
100
AcDbArc
 50
0.0
 51
90.0
  0
ARC
  5
1F1
102
{ACAD_REACTORS
330
232
330
233
102
}
330
71
100
AcDbEntity
  8
0
  6
Continuous
 62
     2
100
AcDbCircle
 10
68.51609502285419
 20
339.4264244710431
 30
0.0
 40
0.4242446153837705
100
AcDbArc
 50
90.0
 51
180.0
  0
ARC
  5
1F2
102
{ACAD_REACTORS
330
232
330
233
102
}
330
71
100
AcDbEntity
  8
0
  6
Continuous
 62
     2
100
AcDbCircle
 10
70.5858229606103
 20
334.4659415650932
 30
0.0
 40
0.3157169230767067
100
AcDbArc
 50
270.0
 51
0.0
  0
ARC
  5
1F3
102
{ACAD_REACTORS
330
232
330
233
102
}
330
71
100
AcDbEntity
  8
0
  6
Continuous
 62
     2
100
AcDbCircle
 10
70.5858229606103
 20
338.2183719887498
 30
0.0
 40
0.3157169230761717
100
AcDbArc
 50
295.1944106485354
 51
0.0
  0
ARC
  5
1F4
102
{ACAD_REACTORS
330
232
330
233
102
}
330
71
100
AcDbEntity
  8
0
  6
Continuous
 62
     2
100
AcDbCircle
 10
70.5858229606103
 20
338.8223966078103
 30
0.0
 40
0.315716923076593
100
AcDbArc
 50
0.0
 51
90.0
  0
ARC
  5
1F5
102
{ACAD_REACTORS
330
232
330
233
102
}
330
71
100
AcDbEntity
  8
0
  6
Continuous
 62
     2
100
AcDbCircle
 10
69.10998969960067
 20
334.4659415650932
 30
0.0
 40
0.3157169230756836
100
AcDbArc
 50
180.0
 51
270.0
  0
ARC
  5
1F6
102
{ACAD_REACTORS
330
238
330
239
102
}
330
71
100
AcDbEntity
  8
0
  6
Continuous
 62
     2
100
AcDbCircle
 10
76.89004080785608
 20
338.7953034451114
 30
0.0
 40
1.055365641333708
100
AcDbArc
 50
270.0
 51
90.0
  0
ARC
  5
1F7
102
{ACAD_REACTORS
330
230
330
231
102
}
330
71
100
AcDbEntity
  8
0
  6
Continuous
 62
     2
100
AcDbCircle
 10
92.6182541195472
 20
335.0773642103997
 30
0.0
 40
1.639695123940448
100
AcDbArc
 50
195.0618917771012
 51
275.1581447696762
  0
ARC
  5
1F8
102
{ACAD_REACTORS
330
230
330
231
102
}
330
71
100
AcDbEntity
  8
0
  6
Continuous
 62
     2
100
AcDbCircle
 10
92.32939802481138
 20
338.2772547936213
 30
0.0
 40
4.852596863498825
100
AcDbArc
 50
275.1581447696364
 51
285.9799912583388
  0
ARC
  5
1F9
102
{ACAD_REACTORS
330
230
330
231
102
}
330
71
100
AcDbEntity
  8
0
  6
Continuous
 62
     2
100
AcDbCircle
 10
92.48727089990419
 20
336.375040213773
 30
0.0
 40
2.227384008972773
100
AcDbArc
 50
288.4480761181333
 51
301.9309089499394
  0
ARC
  5
1FA
102
{ACAD_REACTORS
330
230
330
231
102
}
330
71
100
AcDbEntity
  8
0
  6
Continuous
 62
     2
100
AcDbCircle
 10
92.90543863356609
 20
335.1214944377364
 30
0.0
 40
0.9059297849852278
100
AcDbArc
 50
246.6277221118168
 51
288.4480761180817
  0
ARC
  5
1FB
102
{ACAD_REACTORS
330
230
330
231
102
}
330
71
100
AcDbEntity
  8
0
  6
Continuous
 62
     2
100
AcDbCircle
 10
93.12635585894438
 20
334.9645738483649
 30
0.0
 40
0.9410597353348789
100
AcDbArc
 50
151.478526742364
 51
208.5214732576695
  0
ARC
  5
1FC
102
{ACAD_REACTORS
330
230
330
231
102
}
330
71
100
AcDbEntity
  8
0
  6
Continuous
 62
     2
100
AcDbCircle
 10
92.8956685989667
 20
334.751690297321
 30
0.0
 40
0.9545230068261503
100
AcDbArc
 50
90.0
 51
109.3371432194309
  0
ARC
  5
1FD
102
{ACAD_REACTORS
330
232
330
233
102
}
330
71
100
AcDbEntity
  8
0
  6
Continuous
 62
     2
100
AcDbCircle
 10
71.68553838613238
 20
338.8222191311622
 30
0.0
 40
0.3157169230760142
100
AcDbArc
 50
90.18896704254595
 51
180.0
  0
ARC
  5
1FE
102
{ACAD_REACTORS
330
232
330
233
102
}
330
71
100
AcDbEntity
  8
0
  6
Continuous
 62
     2
100
AcDbCircle
 10
71.1594956880445
 20
337.1075422426876
 30
0.0
 40
0.9118481501444847
100
AcDbArc
 50
295.3740086781757
 51
64.62599132180748
  0
ARC
  5
1FF
102
{ACAD_REACTORS
330
22E
330
22F
102
}
330
71
100
AcDbEntity
  8
0
  6
Continuous
 62
     2
100
AcDbCircle
 10
76.3845694206513
 20
336.3750402137736
 30
0.0
 40
2.227384008972764
100
AcDbArc
 50
288.4480761181326
 51
301.9309089499589
  0
ARC
  5
200
102
{ACAD_REACTORS
330
22E
330
22F
102
}
330
71
100
AcDbEntity
  8
0
  6
Continuous
 62
     2
100
AcDbCircle
 10
76.8027371543121
 20
335.1214944377364
 30
0.0
 40
0.905929784984867
100
AcDbArc
 50
246.6277221118696
 51
288.448076118159
  0
ARC
  5
201
102
{ACAD_REACTORS
330
22E
330
22F
102
}
330
71
100
AcDbEntity
  8
0
  6
Continuous
 62
     2
100
AcDbCircle
 10
76.64629712161008
 20
334.7595024190264
 30
0.0
 40
0.5115800601948034
100
AcDbArc
 50
208.5214732576956
 51
246.6277221118248
  0
ARC
  5
202
102
{ACAD_REACTORS
330
22E
330
22F
102
}
330
71
100
AcDbEntity
  8
0
  6
Continuous
 62
     2
100
AcDbCircle
 10
76.8027371543121
 20
334.8076532589933
 30
0.0
 40
0.9059297849853228
100
AcDbArc
 50
71.55192388185348
 51
113.372277888129
  0
ARC
  5
203
102
{ACAD_REACTORS
330
22E
330
22F
102
}
330
71
100
AcDbEntity
  8
0
  6
Continuous
 62
     2
100
AcDbCircle
 10
76.22669654555838
 20
331.651892903109
 30
0.0
 40
4.852596863498095
100
AcDbArc
 50
74.02000874164747
 51
84.84185523037509
  0
CIRCLE
  5
204
102
{ACAD_REACTORS
330
232
330
233
102
}
330
71
100
AcDbEntity
  8
0
  6
Continuous
 62
     2
100
AcDbCircle
 10
71.1356806733717
 20
337.1075422426876
 30
0.0
 40
0.4709789327785074
  0
CIRCLE
  5
205
330
71
100
AcDbEntity
  8
1
  6
Continuous
 62
     2
100
AcDbCircle
 10
76.59185040747138
 20
347.2691690864432
 30
0.0
 40
1.249999999999915
  0
CIRCLE
  5
206
330
71
100
AcDbEntity
  8
1
  6
Continuous
 62
     2
100
AcDbCircle
 10
76.59185040747138
 20
347.2691690864432
 30
0.0
 40
2.5
  0
TEXT
  5
207
330
71
100
AcDbEntity
  8
1
 62
     7
100
AcDbText
 10
119.2287432429226
 20
344.4441690864432
 30
0.0
 40
2.5
  1
/
 41
0.9
  7
CONVERTER_11
100
AcDbText
  0
TEXT
  5
209
330
71
100
AcDbEntity
  8
1
 62
     7
100
AcDbText
 10
121.3851077399646
 20
344.4441690864432
 30
0.0
 40
2.5
  1
01
 41
0.81
  7
CONVERTER_12
100
AcDbText
  0
TEXT
  5
20A
330
71
100
AcDbEntity
  8
1
 62
     3
100
AcDbText
 10
158.9815917659817
 20
344.4441690864432
 30
0.0
 40
2.5
  1
20.03.2018
 41
0.81
  7
CONVERTER_12
100
AcDbText
  0
MTEXT
  5
20B
330
71
100
AcDbEntity
  8
1
 62
     2
100
AcDbMText
 10
158.9815917659817
 20
350.6441690864432
 30
0.0
 40
1.8
 41
0.0
 71
     1
 72
     1
  1
date
  7
CONVERTER_11
 73
     1
 44
1.32052821128451
  0
MTEXT
  5
20C
330
71
100
AcDbEntity
  8
1
 62
     2
100
AcDbMText
 10
129.1551955209088
 20
342.1441690864432
 30
0.0
 40
1.8
 41
0.0
 71
     1
 72
     1
  1
document-type
  7
CONVERTER_11
 73
     1
 44
1.20048019207683
  0
TEXT
  5
20D
330
71
100
AcDbEntity
  8
1
 62
     3
100
AcDbText
 10
129.1551955209088
 20
335.9441690864432
 30
0.0
 40
2.5
  1
TECDOC 2D_Productdrawing
 41
0.81
  7
CONVERTER_12
100
AcDbText
  0
MTEXT
  5
20F
330
71
100
AcDbEntity
  8
1
 62
     2
100
AcDbMText
 10
101.3551955209088
 20
350.6441690864433
 30
0.0
 40
1.8
 41
0.0
 71
     1
 72
     1
  1
document-No. / RI
  7
CONVERTER_13
 73
     1
 44
1.32052821128451
  0
TEXT
  5
210
330
71
100
AcDbEntity
  8
1
 62
     7
100
AcDbText
 10
101.3551955209088
 20
344.4441690864432
 30
0.0
 40
2.5
  1
00319060
 41
0.81
  7
CONVERTER_12
100
AcDbText
  0
MTEXT
  5
212
330
71
100
AcDbEntity
  8
1
 62
     3
100
AcDbMText
 10
188.9407959068211
 20
344.4441690864434
 30
0.0
 40
2.5
 41
0.0
 71
     8
 72
     1
  1
1:1
  7
CONVERTER_14
 73
     1
 44
1.32052821128451
  0
MTEXT
  5
213
330
71
100
AcDbEntity
  8
1
 62
     2
100
AcDbMText
 10
185.5815917659815
 20
350.6441690864433
 30
0.0
 40
1.8
 41
0.0
 71
     1
 72
     1
  1
scale
  7
CONVERTER_11
 73
     1
 44
1.20048019207683
  0
MTEXT
  5
214
330
71
100
AcDbEntity
  8
1
 62
     2
100
AcDbMText
 10
101.3551955209088
 20
342.1441690864433
 30
0.0
 40
1.8
 41
0.0
 71
     1
 72
     1
  1
ident.-No.
  7
CONVERTER_11
 73
     1
 44
1.20048019207683
  0
TEXT
  5
215
330
71
100
AcDbEntity
  8
1
 62
     7
100
AcDbText
 10
101.7551955209085
 20
335.9441690864432
 30
0.0
 40
2.5
  1
3031762
 41
0.81
  7
CONVERTER_12
100
AcDbText
  0
MTEXT
  5
216
330
71
100
AcDbEntity
  8
1
 62
     2
100
AcDbMText
 10
29.41718079586127
 20
338.8941690864432
 30
0.0
 40
2.0
 41
0.0
 71
     5
 72
     1
  1
General Information\P- Simplified representation\P- Document excluded from change process\P- Linear dimensions [mm]
  7
CONVERTER_11
 73
     1
 44
1.20048019207683
  0
MTEXT
  5
217
330
71
100
AcDbEntity
  8
1
 62
     7
100
AcDbMText
 10
195.9000000476578
 20
401.1441690864452
 30
0.0
 40
3.5
 41
0.0
 71
     5
 72
     1
  1
C
  7
CONVERTER_11
 73
     1
 44
1.20048019207683
  0
MTEXT
  5
218
330
71
100
AcDbEntity
  8
1
 62
     7
100
AcDbMText
 10
195.9000000476578
 20
503.6441690864433
 30
0.0
 40
3.5
 41
0.0
 71
     5
 72
     1
  1
A
  7
CONVERTER_11
 73
     1
 44
1.20048019207683
  0
MTEXT
  5
219
330
71
100
AcDbEntity
  8
1
 62
     7
100
AcDbMText
 10
195.9000000476578
 20
451.1441690864452
 30
0.0
 40
3.5
 41
0.0
 71
     5
 72
     1
  1
B
  7
CONVERTER_11
 73
     1
 44
1.20048019207683
  0
MTEXT
  5
21A
330
71
100
AcDbEntity
  8
1
 62
     7
100
AcDbMText
 10
195.9000000476578
 20
348.6441690864433
 30
0.0
 40
3.5
 41
0.0
 71
     5
 72
     1
  1
D
  7
CONVERTER_11
 73
     1
 44
1.20048019207683
  0
MTEXT
  5
21B
330
71
100
AcDbEntity
  8
1
 62
     7
100
AcDbMText
 10
-74.3499999523408
 20
323.6441690864432
 30
0.0
 40
3.5
 41
0.0
 71
     5
 72
     1
  1
1
  7
CONVERTER_11
 73
     1
 44
1.20048019207683
  0
MTEXT
  5
21C
330
71
100
AcDbEntity
  8
1
 62
     7
100
AcDbMText
 10
-25.09999995234119
 20
323.6441690864432
 30
0.0
 40
3.5
 41
0.0
 71
     5
 72
     1
  1
2
  7
CONVERTER_11
 73
     1
 44
1.20048019207683
  0
MTEXT
  5
21D
330
71
100
AcDbEntity
  8
1
 62
     7
100
AcDbMText
 10
24.90000004765881
 20
323.6441690864432
 30
0.0
 40
3.5
 41
0.0
 71
     5
 72
     1
  1
3
  7
CONVERTER_11
 73
     1
 44
1.20048019207683
  0
MTEXT
  5
21E
330
71
100
AcDbEntity
  8
1
 62
     7
100
AcDbMText
 10
74.9000000476587
 20
323.6441690864432
 30
0.0
 40
3.5
 41
0.0
 71
     5
 72
     1
  1
4
  7
CONVERTER_11
 73
     1
 44
1.20048019207683
  0
MTEXT
  5
21F
330
71
100
AcDbEntity
  8
1
 62
     7
100
AcDbMText
 10
124.9000000476588
 20
323.6441690864432
 30
0.0
 40
3.5
 41
0.0
 71
     5
 72
     1
  1
5
  7
CONVERTER_11
 73
     1
 44
1.20048019207683
  0
MTEXT
  5
220
330
71
100
AcDbEntity
  8
1
 62
     7
100
AcDbMText
 10
174.150000047658
 20
323.6441690864432
 30
0.0
 40
3.5
 41
0.0
 71
     5
 72
     1
  1
6
  7
CONVERTER_11
 73
     1
 44
1.20048019207683
  0
MTEXT
  5
221
330
71
100
AcDbEntity
  8
1
 62
     7
100
AcDbMText
 10
-96.09999995234028
 20
503.6441690864433
 30
0.0
 40
3.5
 41
0.0
 71
     5
 72
     1
  1
A
  7
CONVERTER_11
 73
     1
 44
1.20048019207683
  0
MTEXT
  5
222
330
71
100
AcDbEntity
  8
1
 62
     7
100
AcDbMText
 10
-96.09999995234028
 20
451.1441690864433
 30
0.0
 40
3.5
 41
0.0
 71
     5
 72
     1
  1
B
  7
CONVERTER_11
 73
     1
 44
1.20048019207683
  0
MTEXT
  5
223
330
71
100
AcDbEntity
  8
1
 62
     7
100
AcDbMText
 10
-96.09999995234028
 20
401.1441690864433
 30
0.0
 40
3.5
 41
0.0
 71
     5
 72
     1
  1
C
  7
CONVERTER_11
 73
     1
 44
1.20048019207683
  0
MTEXT
  5
224
330
71
100
AcDbEntity
  8
1
 62
     7
100
AcDbMText
 10
-96.09999995234028
 20
348.6441690864433
 30
0.0
 40
3.5
 41
0.0
 71
     5
 72
     1
  1
D
  7
CONVERTER_11
 73
     1
 44
1.20048019207683
  0
MTEXT
  5
225
330
71
100
AcDbEntity
  8
1
 62
     3
100
AcDbMText
 10
90.05519552090868
 20
347.2691690864433
 30
0.0
 40
2.5
 41
0.0
 71
     5
 72
     1
  1
DIN A4
  7
CONVERTER_11
 73
     1
 44
1.20048019207683
  0
MTEXT
  5
226
330
71
100
AcDbEntity
  8
1
 62
     2
100
AcDbMText
 10
101.2551955209087
 20
333.6441690864433
 30
0.0
 40
1.8
 41
0.0
 71
     1
 72
     1
  1
description
  7
CONVERTER_11
 73
     1
 44
1.20048019207683
  0
MTEXT
  5
227
330
71
100
AcDbEntity
  8
1
 62
     7
100
AcDbMText
 10
146.8275977842843
 20
329.3941690864435
 30
0.0
 40
3.0
 41
0.0
 71
     5
 72
     1
  1
D-STS 2,5
  7
CONVERTER_12
 73
     1
 44
1.20048019207683
  0
TEXT
  5
228
330
71
100
AcDbEntity
  8
1
 62
     2
100
AcDbText
 10
88.29050433072229
 20
327.3941690864432
 30
0.0
 40
1.8
  1
1
 41
0.9
  7
CONVERTER_11
100
AcDbText
  0
TEXT
  5
229
330
71
100
AcDbEntity
  8
1
 62
     2
100
AcDbText
 10
73.50146049125078
 20
327.3449204326413
 30
0.0
 40
1.8
  1
1
 41
0.9
  7
CONVERTER_11
100
AcDbText
  0
TEXT
  5
22A
330
71
100
AcDbEntity
  8
1
 62
     2
100
AcDbText
 10
64.85519552090878
 20
327.3851518714516
 30
0.0
 40
1.8
  1
page
 41
0.9
  7
CONVERTER_11
100
AcDbText
  0
TEXT
  5
22B
330
71
100
AcDbEntity
  8
1
 62
     2
100
AcDbText
 10
83.0551955209086
 20
327.3851518714517
 30
0.0
 40
1.8
  1
of
 41
0.9
  7
CONVERTER_11
100
AcDbText
  0
MTEXT
  5
22C
330
71
100
AcDbEntity
  8
1
 62
     3
100
AcDbMText
 10
89.25817767251868
 20
512.9354772417421
 30
0.0
 40
1.8
 41
0.0
 71
     7
 72
     1
  3
Transfer or duplication of this document as well as the utilisation or\Pcommunication of its content are not permitted unless express consent\Pis granted. Violations give rise to claims for damages. All rights reserved\Pin case of patent, utility mo
  1
del or design patent registrations.
  7
CONVERTER_11
 73
     1
 44
0.99639855942377
  0
MTEXT
  5
22D
330
71
100
AcDbEntity
  8
1
 62
     3
100
AcDbMText
 10
-93.59493216626942
 20
512.9354772417421
 30
0.0
 40
1.8
 41
0.0
 71
     7
 72
     1
  3
Weitergabe sowie Vervielf\U+00e4ltigung dieses Dokuments, Verwertung und \PMitteilung seines Inhalts sind verboten, soweit nicht ausdr\U+00fccklich gestattet. \PZuwiderhandlungen verpflichten zu Schadenersatz. Alle Rechte f\U+00fcr den Fall\Pder Pat
  1
ent-, Gebrauchsmuster- oder Designeintragung vorbehalten.
  7
CONVERTER_11
 73
     1
 44
0.99639855942377
  0
HATCH
  5
22E
330
71
100
AcDbEntity
  8
1
  6
Continuous
 62
     2
100
AcDbHatch
 10
0.0
 20
0.0
 30
0.0
210
0.0
220
0.0
230
1.0
  2
_USER
 70
     0
 71
     1
 91
        1
 92
        1
 93
       14
 72
     2
 10
76.09642479683149
 20
334.9645738483649
 40
1.205656168390929
 50
164.9381082228791
 51
195.0618917770948
 73
     1
 72
     2
 10
76.51555264029429
 20
335.0773642103997
 40
1.63969512393938
 50
195.0618917770886
 51
275.1581447696395
 73
     1
 72
     2
 10
76.22669654555838
 20
338.2772547936213
 40
4.852596863498166
 50
275.1581447696249
 51
285.9799912583529
 73
     1
 72
     1
 10
77.56262446267618
 20
333.6121724878205
 11
77.56262446267618
 21
334.4846894946237
 72
     2
 10
76.3845694206513
 20
336.3750402137736
 40
2.227384008972764
 50
58.06909105004111
 51
71.55192388186742
 73
     0
 72
     2
 10
76.8027371543121
 20
335.1214944377364
 40
0.905929784984867
 50
71.55192388184098
 51
113.3722778881304
 73
     0
 72
     2
 10
76.64629712161008
 20
334.7595024190264
 40
0.5115800601948034
 50
113.3722778881752
 51
151.4785267423044
 73
     0
 72
     2
 10
77.02365437969038
 20
334.9645738483649
 40
0.9410597353332545
 50
151.4785267422912
 51
208.5214732577331
 73
     0
 72
     2
 10
76.64629712161008
 20
335.1696452777039
 40
0.5115800601948517
 50
208.5214732576956
 51
246.6277221117996
 73
     0
 72
     2
 10
76.8027371543121
 20
334.8076532589933
 40
0.9059297849853228
 50
246.627722111871
 51
288.4480761181465
 73
     0
 72
     2
 10
76.3845694206513
 20
333.5541074829567
 40
2.227384008973501
 50
288.4480761181326
 51
301.9309089499589
 73
     0
 72
     1
 10
77.56262446267618
 20
335.4444582021066
 11
77.56262446267618
 21
336.3169752089099
 72
     2
 10
76.22669654555838
 20
331.651892903109
 40
4.852596863498095
 50
74.02000874164747
 51
84.84185523037509
 73
     1
 72
     2
 10
76.51555264029429
 20
334.85178348633
 40
1.639695123940507
 50
84.84185523036236
 51
164.9381082228884
 73
     1
 97
       14
330
203
330
11C
330
1D2
330
202
330
1D3
330
1D4
330
201
330
200
330
1FF
330
11D
330
1D5
330
1D6
330
1D7
330
1D8
 75
     1
 76
     0
 52
45.0
 41
0.1
 77
     0
 78
     1
 53
45.0
 43
0.0
 44
0.0
 45
-0.0707106781186548
 46
0.0707106781186548
 79
     0
 98
        1
 10
0.0
 20
0.0
  0
HATCH
  5
22F
330
71
100
AcDbEntity
  8
1
  6
Continuous
 62
     2
100
AcDbHatch
 10
0.0
 20
0.0
 30
0.0
210
0.0
220
0.0
230
1.0
  2
_USER
 70
     0
 71
     1
 91
        1
 92
        1
 93
       14
 72
     2
 10
76.09642479683149
 20
334.9645738483649
 40
1.205656168390929
 50
164.9381082228791
 51
195.0618917770948
 73
     1
 72
     2
 10
76.51555264029429
 20
335.0773642103997
 40
1.63969512393938
 50
195.0618917770886
 51
275.1581447696395
 73
     1
 72
     2
 10
76.22669654555838
 20
338.2772547936213
 40
4.852596863498166
 50
275.1581447696249
 51
285.9799912583529
 73
     1
 72
     1
 10
77.56262446267618
 20
333.6121724878205
 11
77.56262446267618
 21
334.4846894946237
 72
     2
 10
76.3845694206513
 20
336.3750402137736
 40
2.227384008972764
 50
58.06909105004111
 51
71.55192388186742
 73
     0
 72
     2
 10
76.8027371543121
 20
335.1214944377364
 40
0.905929784984867
 50
71.55192388184098
 51
113.3722778881304
 73
     0
 72
     2
 10
76.64629712161008
 20
334.7595024190264
 40
0.5115800601948034
 50
113.3722778881752
 51
151.4785267423044
 73
     0
 72
     2
 10
77.02365437969038
 20
334.9645738483649
 40
0.9410597353332545
 50
151.4785267422912
 51
208.5214732577331
 73
     0
 72
     2
 10
76.64629712161008
 20
335.1696452777039
 40
0.5115800601948517
 50
208.5214732576956
 51
246.6277221117996
 73
     0
 72
     2
 10
76.8027371543121
 20
334.8076532589933
 40
0.9059297849853228
 50
246.627722111871
 51
288.4480761181465
 73
     0
 72
     2
 10
76.3845694206513
 20
333.5541074829567
 40
2.227384008973501
 50
288.4480761181326
 51
301.9309089499589
 73
     0
 72
     1
 10
77.56262446267618
 20
335.4444582021066
 11
77.56262446267618
 21
336.3169752089099
 72
     2
 10
76.22669654555838
 20
331.651892903109
 40
4.852596863498095
 50
74.02000874164747
 51
84.84185523037509
 73
     1
 72
     2
 10
76.51555264029429
 20
334.85178348633
 40
1.639695123940507
 50
84.84185523036236
 51
164.9381082228884
 73
     1
 97
       14
330
203
330
11C
330
1D2
330
202
330
1D3
330
1D4
330
201
330
200
330
1FF
330
11D
330
1D5
330
1D6
330
1D7
330
1D8
 75
     1
 76
     0
 52
45.0
 41
0.1
 77
     0
 78
     1
 53
45.0
 43
0.0
 44
0.0
 45
-0.0707106781186548
 46
0.0707106781186548
 79
     0
 98
        1
 10
0.0
 20
0.0
  0
HATCH
  5
230
330
71
100
AcDbEntity
  8
1
  6
Continuous
 62
     2
100
AcDbHatch
 10
0.0
 20
0.0
 30
0.0
210
0.0
220
0.0
230
1.0
  2
_USER
 70
     0
 71
     1
 91
        1
 92
        1
 93
       18
 72
     2
 10
92.6182541195472
 20
334.85178348633
 40
1.639695123940157
 50
90.0
 51
164.9381082228969
 73
     1
 72
     2
 10
92.1991262760856
 20
334.9645738483649
 40
1.205656168392988
 50
164.9381082229054
 51
195.0618917770972
 73
     1
 72
     2
 10
92.6182541195472
 20
335.0773642103997
 40
1.639695123940448
 50
195.0618917771012
 51
275.1581447696762
 73
     1
 72
     2
 10
92.32939802481138
 20
338.2772547936213
 40
4.852596863498825
 50
275.1581447696364
 51
285.9799912583388
 73
     1
 72
     1
 10
93.6653259419281
 20
333.6121724878199
 11
93.6653259419281
 21
334.4846894946232
 72
     2
 10
92.48727089990419
 20
336.375040213773
 40
2.227384008972773
 50
58.06909105006066
 51
71.55192388186677
 73
     0
 72
     2
 10
92.90543863356609
 20
335.1214944377364
 40
0.9059297849852278
 50
71.55192388191827
 51
113.3722778881832
 73
     0
 72
     2
 10
92.74899860086299
 20
334.7595024190264
 40
0.5115800601959944
 50
113.3722778881576
 51
151.478526742319
 73
     0
 72
     2
 10
93.12635585894438
 20
334.9645738483649
 40
0.9410597353348789
 50
151.4785267423305
 51
208.521473257636
 73
     0
 72
     2
 10
92.74899860086299
 20
335.1696452777039
 40
0.5115800601944143
 50
208.5214732575747
 51
250.6628567805147
 73
     0
 72
     2
 10
92.8956685989667
 20
334.751690297321
 40
0.9545230068261503
 50
250.6628567805691
 51
270.0
 73
     0
 72
     1
 10
92.8956685989667
 20
335.7062133041471
 11
93.9993078985348
 21
335.7062133041471
 72
     1
 10
93.9993078985348
 20
335.7062133041471
 11
93.9993078985348
 21
333.4376690864596
 72
     1
 10
93.9993078985348
 20
333.4376690864596
 11
95.1921006007025
 21
333.4376690864596
 72
     1
 10
95.1921006007025
 20
333.4376690864596
 11
95.1921006007025
 21
335.7062133041471
 72
     1
 10
95.1921006007025
 20
335.7062133041471
 11
96.00319963817589
 21
335.7062133041471
 72
     1
 10
96.00319963817589
 20
335.7062133041471
 11
96.00319963817589
 21
336.4914786102707
 72
     1
 10
96.00319963817589
 20
336.4914786102707
 11
92.6182541195472
 21
336.4914786102702
 97
       18
330
182
330
181
330
180
330
17F
330
184
330
11E
330
1FC
330
1DD
330
1FB
330
1DE
330
1FA
330
1F9
330
11F
330
1F8
330
1F7
330
1DF
330
1E0
330
183
 75
     1
 76
     0
 52
45.0
 41
0.1
 77
     0
 78
     1
 53
45.0
 43
0.0
 44
0.0
 45
-0.0707106781186548
 46
0.0707106781186548
 79
     0
 98
        1
 10
0.0
 20
0.0
  0
HATCH
  5
231
330
71
100
AcDbEntity
  8
1
  6
Continuous
 62
     2
100
AcDbHatch
 10
0.0
 20
0.0
 30
0.0
210
0.0
220
0.0
230
1.0
  2
_USER
 70
     0
 71
     1
 91
        1
 92
        1
 93
       18
 72
     2
 10
92.6182541195472
 20
334.85178348633
 40
1.639695123940157
 50
90.0
 51
164.9381082228969
 73
     1
 72
     2
 10
92.1991262760856
 20
334.9645738483649
 40
1.205656168392988
 50
164.9381082229054
 51
195.0618917770972
 73
     1
 72
     2
 10
92.6182541195472
 20
335.0773642103997
 40
1.639695123940448
 50
195.0618917771012
 51
275.1581447696762
 73
     1
 72
     2
 10
92.32939802481138
 20
338.2772547936213
 40
4.852596863498825
 50
275.1581447696364
 51
285.9799912583388
 73
     1
 72
     1
 10
93.6653259419281
 20
333.6121724878199
 11
93.6653259419281
 21
334.4846894946232
 72
     2
 10
92.48727089990419
 20
336.375040213773
 40
2.227384008972773
 50
58.06909105006066
 51
71.55192388186677
 73
     0
 72
     2
 10
92.90543863356609
 20
335.1214944377364
 40
0.9059297849852278
 50
71.55192388191827
 51
113.3722778881832
 73
     0
 72
     2
 10
92.74899860086299
 20
334.7595024190264
 40
0.5115800601959944
 50
113.3722778881576
 51
151.478526742319
 73
     0
 72
     2
 10
93.12635585894438
 20
334.9645738483649
 40
0.9410597353348789
 50
151.4785267423305
 51
208.521473257636
 73
     0
 72
     2
 10
92.74899860086299
 20
335.1696452777039
 40
0.5115800601944143
 50
208.5214732575747
 51
250.6628567805147
 73
     0
 72
     2
 10
92.8956685989667
 20
334.751690297321
 40
0.9545230068261503
 50
250.6628567805691
 51
270.0
 73
     0
 72
     1
 10
92.8956685989667
 20
335.7062133041471
 11
93.9993078985348
 21
335.7062133041471
 72
     1
 10
93.9993078985348
 20
335.7062133041471
 11
93.9993078985348
 21
333.4376690864596
 72
     1
 10
93.9993078985348
 20
333.4376690864596
 11
95.1921006007025
 21
333.4376690864596
 72
     1
 10
95.1921006007025
 20
333.4376690864596
 11
95.1921006007025
 21
335.7062133041471
 72
     1
 10
95.1921006007025
 20
335.7062133041471
 11
96.00319963817589
 21
335.7062133041471
 72
     1
 10
96.00319963817589
 20
335.7062133041471
 11
96.00319963817589
 21
336.4914786102707
 72
     1
 10
96.00319963817589
 20
336.4914786102707
 11
92.6182541195472
 21
336.4914786102702
 97
       18
330
182
330
181
330
180
330
17F
330
184
330
11E
330
1FC
330
1DD
330
1FB
330
1DE
330
1FA
330
1F9
330
11F
330
1F8
330
1F7
330
1DF
330
1E0
330
183
 75
     1
 76
     0
 52
45.0
 41
0.1
 77
     0
 78
     1
 53
45.0
 43
0.0
 44
0.0
 45
-0.0707106781186548
 46
0.0707106781186548
 79
     0
 98
        1
 10
0.0
 20
0.0
  0
HATCH
  5
232
330
71
100
AcDbEntity
  8
1
  6
Continuous
 62
     2
100
AcDbHatch
 10
0.0
 20
0.0
 30
0.0
210
0.0
220
0.0
230
1.0
  2
_USER
 70
     0
 71
     1
 91
        4
 92
        1
 93
        8
 72
     2
 10
68.51609502285419
 20
339.4264244710431
 40
0.4242446153837705
 50
90.0
 51
180.0
 73
     1
 72
     1
 10
68.09185040747138
 20
339.4264244710431
 11
68.09185040747138
 21
333.8619137018429
 72
     2
 10
68.51609502285419
 20
333.8619137018429
 40
0.4242446153828041
 50
180.0
 51
270.0
 73
     1
 72
     1
 10
68.51609502285419
 20
333.4376690864596
 11
73.98940711357099
 21
333.4376690864596
 72
     2
 10
73.98940711357099
 20
333.8619137018429
 40
0.4242446153833157
 50
270.0
 51
360.0
 73
     1
 72
     1
 10
74.41365172895487
 20
333.8619137018429
 11
74.41365172895487
 21
339.4264244710431
 72
     2
 10
73.98940711357099
 20
339.4264244710431
 40
0.4242446153838841
 50
0.0
 51
90.0
 73
     1
 72
     1
 10
73.98940711357099
 20
339.8506690864269
 11
68.51609502285419
 21
339.8506690864269
 97
        8
330
1F0
330
14D
330
1EF
330
14E
330
1E6
330
14B
330
1F1
330
14C
 92
       16
 93
        1
 72
     2
 10
71.1356806733717
 20
337.1075422426876
 40
0.4709789327785074
 50
0.0
 51
360.0
 73
     1
 97
        1
330
204
 92
       16
 93
        8
 72
     2
 10
71.1594956880445
 20
337.1075422426876
 40
0.9118481501444847
 50
295.3740086781757
 51
424.6259913218075
 73
     1
 72
     2
 10
71.68553838613238
 20
338.2166838426554
 40
0.315716923076792
 50
115.3740086783518
 51
180.0
 73
     0
 72
     1
 10
71.36982146305559
 20
338.2166838426554
 11
71.36982146305559
 21
338.8222191311622
 72
     2
 10
71.68553838613238
 20
338.8222191311622
 40
0.3157169230760142
 50
180.0
 51
269.8110329574541
 73
     0
 72
     2
 10
71.6911545214424
 20
337.1193841835931
 40
2.018561131933266
 50
269.8110329575858
 51
450.1889670424142
 73
     0
 72
     2
 10
71.68553838613238
 20
335.4165492360241
 40
0.315716923076792
 50
90.1889670425459
 51
180.0
 73
     0
 72
     1
 10
71.36982146305559
 20
335.4165492360241
 11
71.36982146305559
 21
335.9984006427192
 72
     2
 10
71.68553838613238
 20
335.9984006427192
 40
0.3157169230764815
 50
180.0
 51
244.6259913216437
 73
     0
 97
        8
330
1FE
330
1DA
330
186
330
1FD
330
1DB
330
1DC
330
185
330
1D9
 92
       16
 93
       12
 72
     1
 10
69.10998969960067
 20
334.1502246420165
 11
70.5858229606103
 21
334.1502246420165
 72
     2
 10
70.5858229606103
 20
334.4659415650932
 40
0.3157169230767067
 50
270.0
 51
360.0
 73
     1
 72
     1
 10
70.9015398836869
 20
334.4659415650932
 11
70.9015398836869
 21
335.9967124966248
 72
     2
 10
70.5858229606103
 20
335.9967124966248
 40
0.315716923076593
 50
0.0
 51
64.80558935146027
 73
     1
 72
     2
 10
71.10840740818529
 20
337.1075422426876
 40
0.9118975235575889
 50
115.1944106485122
 51
244.805589351471
 73
     0
 72
     2
 10
70.5858229606103
 20
338.2183719887498
 40
0.3157169230761717
 50
295.1944106485354
 51
360.0
 73
     1
 72
     1
 10
70.9015398836869
 20
338.2183719887498
 11
70.9015398836869
 21
338.8223966078103
 72
     2
 10
70.5858229606103
 20
338.8223966078103
 40
0.315716923076593
 50
0.0
 51
90.0
 73
     1
 72
     1
 10
70.5858229606103
 20
339.1381135308865
 11
69.10998969960067
 21
339.1381135308865
 72
     2
 10
69.10998969960067
 20
338.8223966078103
 40
0.315716923076252
 50
90.0
 51
180.0
 73
     1
 72
     1
 10
68.79427277652499
 20
338.8223966078103
 11
68.79427277652499
 21
334.4659415650932
 72
     2
 10
69.10998969960067
 20
334.4659415650932
 40
0.3157169230756836
 50
180.0
 51
270.0
 73
     1
 97
       12
330
152
330
1E3
330
151
330
1F4
330
150
330
1F3
330
1E4
330
1E5
330
14F
330
1F2
330
14A
330
1F5
 75
     1
 76
     0
 52
45.0
 41
0.1
 77
     0
 78
     1
 53
45.0
 43
0.0
 44
0.0
 45
-0.0707106781186548
 46
0.0707106781186548
 79
     0
 98
        1
 10
0.0
 20
0.0
  0
HATCH
  5
233
330
71
100
AcDbEntity
  8
1
  6
Continuous
 62
     2
100
AcDbHatch
 10
0.0
 20
0.0
 30
0.0
210
0.0
220
0.0
230
1.0
  2
_USER
 70
     0
 71
     1
 91
        4
 92
        1
 93
        8
 72
     2
 10
68.51609502285419
 20
339.4264244710431
 40
0.4242446153837705
 50
90.0
 51
180.0
 73
     1
 72
     1
 10
68.09185040747138
 20
339.4264244710431
 11
68.09185040747138
 21
333.8619137018429
 72
     2
 10
68.51609502285419
 20
333.8619137018429
 40
0.4242446153828041
 50
180.0
 51
270.0
 73
     1
 72
     1
 10
68.51609502285419
 20
333.4376690864596
 11
73.98940711357099
 21
333.4376690864596
 72
     2
 10
73.98940711357099
 20
333.8619137018429
 40
0.4242446153833157
 50
270.0
 51
360.0
 73
     1
 72
     1
 10
74.41365172895487
 20
333.8619137018429
 11
74.41365172895487
 21
339.4264244710431
 72
     2
 10
73.98940711357099
 20
339.4264244710431
 40
0.4242446153838841
 50
0.0
 51
90.0
 73
     1
 72
     1
 10
73.98940711357099
 20
339.8506690864269
 11
68.51609502285419
 21
339.8506690864269
 97
        8
330
1F0
330
14D
330
1EF
330
14E
330
1E6
330
14B
330
1F1
330
14C
 92
       16
 93
        1
 72
     2
 10
71.1356806733717
 20
337.1075422426876
 40
0.4709789327785074
 50
0.0
 51
360.0
 73
     1
 97
        1
330
204
 92
       16
 93
        8
 72
     2
 10
71.1594956880445
 20
337.1075422426876
 40
0.9118481501444847
 50
295.3740086781757
 51
424.6259913218075
 73
     1
 72
     2
 10
71.68553838613238
 20
338.2166838426554
 40
0.315716923076792
 50
115.3740086783518
 51
180.0
 73
     0
 72
     1
 10
71.36982146305559
 20
338.2166838426554
 11
71.36982146305559
 21
338.8222191311622
 72
     2
 10
71.68553838613238
 20
338.8222191311622
 40
0.3157169230760142
 50
180.0
 51
269.8110329574541
 73
     0
 72
     2
 10
71.6911545214424
 20
337.1193841835931
 40
2.018561131933266
 50
269.8110329575858
 51
450.1889670424142
 73
     0
 72
     2
 10
71.68553838613238
 20
335.4165492360241
 40
0.315716923076792
 50
90.1889670425459
 51
180.0
 73
     0
 72
     1
 10
71.36982146305559
 20
335.4165492360241
 11
71.36982146305559
 21
335.9984006427192
 72
     2
 10
71.68553838613238
 20
335.9984006427192
 40
0.3157169230764815
 50
180.0
 51
244.6259913216437
 73
     0
 97
        8
330
1FE
330
1DA
330
186
330
1FD
330
1DB
330
1DC
330
185
330
1D9
 92
       16
 93
       12
 72
     1
 10
69.10998969960067
 20
334.1502246420165
 11
70.5858229606103
 21
334.1502246420165
 72
     2
 10
70.5858229606103
 20
334.4659415650932
 40
0.3157169230767067
 50
270.0
 51
360.0
 73
     1
 72
     1
 10
70.9015398836869
 20
334.4659415650932
 11
70.9015398836869
 21
335.9967124966248
 72
     2
 10
70.5858229606103
 20
335.9967124966248
 40
0.315716923076593
 50
0.0
 51
64.80558935146027
 73
     1
 72
     2
 10
71.10840740818529
 20
337.1075422426876
 40
0.9118975235575889
 50
115.1944106485122
 51
244.805589351471
 73
     0
 72
     2
 10
70.5858229606103
 20
338.2183719887498
 40
0.3157169230761717
 50
295.1944106485354
 51
360.0
 73
     1
 72
     1
 10
70.9015398836869
 20
338.2183719887498
 11
70.9015398836869
 21
338.8223966078103
 72
     2
 10
70.5858229606103
 20
338.8223966078103
 40
0.315716923076593
 50
0.0
 51
90.0
 73
     1
 72
     1
 10
70.5858229606103
 20
339.1381135308865
 11
69.10998969960067
 21
339.1381135308865
 72
     2
 10
69.10998969960067
 20
338.8223966078103
 40
0.315716923076252
 50
90.0
 51
180.0
 73
     1
 72
     1
 10
68.79427277652499
 20
338.8223966078103
 11
68.79427277652499
 21
334.4659415650932
 72
     2
 10
69.10998969960067
 20
334.4659415650932
 40
0.3157169230756836
 50
180.0
 51
270.0
 73
     1
 97
       12
330
152
330
1E3
330
151
330
1F4
330
150
330
1F3
330
1E4
330
1E5
330
14F
330
1F2
330
14A
330
1F5
 75
     1
 76
     0
 52
45.0
 41
0.1
 77
     0
 78
     1
 53
45.0
 43
0.0
 44
0.0
 45
-0.0707106781186548
 46
0.0707106781186548
 79
     0
 98
        1
 10
0.0
 20
0.0
  0
HATCH
  5
234
330
71
100
AcDbEntity
  8
1
  6
Continuous
 62
     2
100
AcDbHatch
 10
0.0
 20
0.0
 30
0.0
210
0.0
220
0.0
230
1.0
  2
_USER
 70
     0
 71
     1
 91
        2
 92
        1
 93
       12
 72
     2
 10
83.19125902684348
 20
338.3237643245392
 40
1.526904761905939
 50
90.0
 51
270.0
 73
     1
 72
     1
 10
83.19125902684348
 20
336.7968595626339
 11
86.34157875062448
 21
336.7968595626339
 72
     1
 10
86.34157875062448
 20
336.7968595626339
 11
86.34157875062448
 21
337.4948731680764
 72
     1
 10
86.34157875062448
 20
337.4948731680764
 11
85.0056509241968
 21
337.4948731680764
 72
     1
 10
85.0056509241968
 20
337.4948731680764
 11
85.0056509241968
 21
337.9747575218181
 72
     1
 10
85.0056509241968
 20
337.9747575218181
 11
86.34157875062448
 21
337.9747575218181
 72
     1
 10
86.34157875062448
 20
337.9747575218181
 11
86.34157875062448
 21
338.6727711272604
 72
     1
 10
86.34157875062448
 20
338.6727711272604
 11
85.0056509241968
 21
338.6727711272604
 72
     1
 10
85.0056509241968
 20
338.6727711272604
 11
85.0056509241968
 21
339.1526554810021
 72
     1
 10
85.0056509241968
 20
339.1526554810021
 11
86.34157875062448
 21
339.1526554810021
 72
     1
 10
86.34157875062448
 20
339.1526554810021
 11
86.34157875062448
 21
339.8506690864451
 72
     1
 10
86.34157875062448
 20
339.8506690864451
 11
83.19125902684348
 21
339.8506690864451
 97
       12
330
141
330
13B
330
162
330
161
330
160
330
15F
330
13C
330
13D
330
13E
330
13F
330
1E1
330
140
 92
       16
 93
        4
 72
     2
 10
83.60727107335498
 20
338.3237643245392
 40
0.7717997786797075
 50
141.8795802028371
 51
218.1204197971529
 73
     1
 72
     2
 10
83.40753103700868
 20
338.1670331464188
 40
0.5179085730134372
 50
218.1204197971511
 51
321.8795802028566
 73
     1
 72
     2
 10
83.2077910006625
 20
338.3237643245392
 40
0.7717997786796023
 50
321.8795802028471
 51
398.1204197971629
 73
     1
 72
     2
 10
83.40753103700868
 20
338.4804955026597
 40
0.5179085730135266
 50
38.12041979714334
 51
141.8795802028489
 73
     1
 97
        4
330
1EE
330
1ED
330
1E8
330
1E7
 75
     1
 76
     0
 52
45.0
 41
0.1
 77
     0
 78
     1
 53
45.0
 43
0.0
 44
0.0
 45
-0.0707106781186548
 46
0.0707106781186548
 79
     0
 98
        1
 10
0.0
 20
0.0
  0
HATCH
  5
235
330
71
100
AcDbEntity
  8
1
  6
Continuous
 62
     2
100
AcDbHatch
 10
0.0
 20
0.0
 30
0.0
210
0.0
220
0.0
230
1.0
  2
_USER
 70
     0
 71
     1
 91
        2
 92
        1
 93
       12
 72
     2
 10
83.19125902684348
 20
338.3237643245392
 40
1.526904761905939
 50
90.0
 51
270.0
 73
     1
 72
     1
 10
83.19125902684348
 20
336.7968595626339
 11
86.34157875062448
 21
336.7968595626339
 72
     1
 10
86.34157875062448
 20
336.7968595626339
 11
86.34157875062448
 21
337.4948731680764
 72
     1
 10
86.34157875062448
 20
337.4948731680764
 11
85.0056509241968
 21
337.4948731680764
 72
     1
 10
85.0056509241968
 20
337.4948731680764
 11
85.0056509241968
 21
337.9747575218181
 72
     1
 10
85.0056509241968
 20
337.9747575218181
 11
86.34157875062448
 21
337.9747575218181
 72
     1
 10
86.34157875062448
 20
337.9747575218181
 11
86.34157875062448
 21
338.6727711272604
 72
     1
 10
86.34157875062448
 20
338.6727711272604
 11
85.0056509241968
 21
338.6727711272604
 72
     1
 10
85.0056509241968
 20
338.6727711272604
 11
85.0056509241968
 21
339.1526554810021
 72
     1
 10
85.0056509241968
 20
339.1526554810021
 11
86.34157875062448
 21
339.1526554810021
 72
     1
 10
86.34157875062448
 20
339.1526554810021
 11
86.34157875062448
 21
339.8506690864451
 72
     1
 10
86.34157875062448
 20
339.8506690864451
 11
83.19125902684348
 21
339.8506690864451
 97
       12
330
141
330
13B
330
162
330
161
330
160
330
15F
330
13C
330
13D
330
13E
330
13F
330
1E1
330
140
 92
       16
 93
        4
 72
     2
 10
83.60727107335498
 20
338.3237643245392
 40
0.7717997786797075
 50
141.8795802028371
 51
218.1204197971529
 73
     1
 72
     2
 10
83.40753103700868
 20
338.1670331464188
 40
0.5179085730134372
 50
218.1204197971511
 51
321.8795802028566
 73
     1
 72
     2
 10
83.2077910006625
 20
338.3237643245392
 40
0.7717997786796023
 50
321.8795802028471
 51
398.1204197971629
 73
     1
 72
     2
 10
83.40753103700868
 20
338.4804955026597
 40
0.5179085730135266
 50
38.12041979714334
 51
141.8795802028489
 73
     1
 97
        4
330
1EE
330
1ED
330
1E8
330
1E7
 75
     1
 76
     0
 52
45.0
 41
0.1
 77
     0
 78
     1
 53
45.0
 43
0.0
 44
0.0
 45
-0.0707106781186548
 46
0.0707106781186548
 79
     0
 98
        1
 10
0.0
 20
0.0
  0
HATCH
  5
236
330
71
100
AcDbEntity
  8
1
  6
Continuous
 62
     2
100
AcDbHatch
 10
0.0
 20
0.0
 30
0.0
210
0.0
220
0.0
230
1.0
  2
_USER
 70
     0
 71
     1
 91
        2
 92
        1
 93
        4
 72
     2
 10
79.16564366438189
 20
334.9645738483649
 40
1.458034083651465
 50
117.548148175663
 51
242.451851824338
 73
     1
 72
     2
 10
79.44658355621519
 20
335.5031488586682
 40
2.065479772208534
 50
242.4518518243405
 51
297.5481481756867
 73
     1
 72
     2
 10
79.72752344804849
 20
334.9645738483649
 40
1.458034083652028
 50
297.5481481757005
 51
422.4518518242985
 73
     1
 72
     2
 10
79.44658355621519
 20
334.4259988380621
 40
2.065479772208543
 50
62.451851824306
 51
117.5481481756667
 73
     1
 97
        4
330
1EC
330
1E9
330
1EB
330
1EA
 92
       16
 93
        4
 72
     2
 10
79.44658355621519
 20
335.1213050264854
 40
0.5179085730132998
 50
38.12041979714704
 51
141.8795802028588
 73
     1
 72
     2
 10
79.64632359256129
 20
334.9645738483649
 40
0.7717997786794457
 50
141.879580202838
 51
218.120419797172
 73
     1
 72
     2
 10
79.44658355621519
 20
334.8078426702449
 40
0.5179085730137529
 50
218.1204197971956
 51
321.8795802027985
 73
     1
 72
     2
 10
79.24684351986878
 20
334.9645738483649
 40
0.7717997786797298
 50
321.8795802028384
 51
398.1204197971516
 73
     1
 97
        4
330
1CF
330
1D0
330
1D1
330
1CE
 75
     1
 76
     0
 52
45.0
 41
0.1
 77
     0
 78
     1
 53
45.0
 43
0.0
 44
0.0
 45
-0.0707106781186548
 46
0.0707106781186548
 79
     0
 98
        1
 10
0.0
 20
0.0
  0
HATCH
  5
237
330
71
100
AcDbEntity
  8
1
  6
Continuous
 62
     2
100
AcDbHatch
 10
0.0
 20
0.0
 30
0.0
210
0.0
220
0.0
230
1.0
  2
_USER
 70
     0
 71
     1
 91
        2
 92
        1
 93
        4
 72
     2
 10
79.16564366438189
 20
334.9645738483649
 40
1.458034083651465
 50
117.548148175663
 51
242.451851824338
 73
     1
 72
     2
 10
79.44658355621519
 20
335.5031488586682
 40
2.065479772208534
 50
242.4518518243405
 51
297.5481481756867
 73
     1
 72
     2
 10
79.72752344804849
 20
334.9645738483649
 40
1.458034083652028
 50
297.5481481757005
 51
422.4518518242985
 73
     1
 72
     2
 10
79.44658355621519
 20
334.4259988380621
 40
2.065479772208543
 50
62.451851824306
 51
117.5481481756667
 73
     1
 97
        4
330
1EC
330
1E9
330
1EB
330
1EA
 92
       16
 93
        4
 72
     2
 10
79.44658355621519
 20
335.1213050264854
 40
0.5179085730132998
 50
38.12041979714704
 51
141.8795802028588
 73
     1
 72
     2
 10
79.64632359256129
 20
334.9645738483649
 40
0.7717997786794457
 50
141.879580202838
 51
218.120419797172
 73
     1
 72
     2
 10
79.44658355621519
 20
334.8078426702449
 40
0.5179085730137529
 50
218.1204197971956
 51
321.8795802027985
 73
     1
 72
     2
 10
79.24684351986878
 20
334.9645738483649
 40
0.7717997786797298
 50
321.8795802028384
 51
398.1204197971516
 73
     1
 97
        4
330
1CF
330
1D0
330
1D1
330
1CE
 75
     1
 76
     0
 52
45.0
 41
0.1
 77
     0
 78
     1
 53
45.0
 43
0.0
 44
0.0
 45
-0.0707106781186548
 46
0.0707106781186548
 79
     0
 98
        1
 10
0.0
 20
0.0
  0
HATCH
  5
238
330
71
100
AcDbEntity
  8
1
  6
Continuous
 62
     2
100
AcDbHatch
 10
0.0
 20
0.0
 30
0.0
210
0.0
220
0.0
230
1.0
  2
_USER
 70
     0
 71
     1
 91
        2
 92
        1
 93
        6
 72
     1
 10
74.89076880982168
 20
339.8506690864451
 11
74.89076880982168
 21
336.7968595626339
 72
     1
 10
74.89076880982168
 20
336.7968595626339
 11
76.1312732200758
 21
336.7968595626339
 72
     1
 10
76.1312732200758
 20
336.7968595626339
 11
76.1312732200758
 21
337.7399378037777
 72
     1
 10
76.1312732200758
 20
337.7399378037777
 11
76.89004080785608
 21
337.7399378037777
 72
     2
 10
76.89004080785608
 20
338.7953034451114
 40
1.055365641333708
 50
270.0
 51
450.0
 73
     1
 72
     1
 10
76.89004080785608
 20
339.8506690864451
 11
74.89076880982168
 21
339.8506690864451
 97
        6
330
1F6
330
153
330
149
330
148
330
155
330
154
 92
       16
 93
        4
 72
     1
 10
76.4485682816177
 20
339.187563241005
 11
76.1312732200758
 21
339.187563241005
 72
     1
 10
76.1312732200758
 20
339.187563241005
 11
76.1312732200758
 21
338.4818355916628
 72
     1
 10
76.1312732200758
 20
338.4818355916628
 11
76.4485682816177
 21
338.4818355916628
 72
     2
 10
76.4485682816177
 20
338.8346994163339
 40
0.3528638246710898
 50
270.0
 51
450.0
 73
     1
 97
        4
330
156
330
147
330
157
330
1E2
 75
     1
 76
     0
 52
45.0
 41
0.1
 77
     0
 78
     1
 53
45.0
 43
0.0
 44
0.0
 45
-0.0707106781186548
 46
0.0707106781186548
 79
     0
 98
        1
 10
0.0
 20
0.0
  0
HATCH
  5
239
330
71
100
AcDbEntity
  8
1
  6
Continuous
 62
     2
100
AcDbHatch
 10
0.0
 20
0.0
 30
0.0
210
0.0
220
0.0
230
1.0
  2
_USER
 70
     0
 71
     1
 91
        2
 92
        1
 93
        6
 72
     1
 10
74.89076880982168
 20
339.8506690864451
 11
74.89076880982168
 21
336.7968595626339
 72
     1
 10
74.89076880982168
 20
336.7968595626339
 11
76.1312732200758
 21
336.7968595626339
 72
     1
 10
76.1312732200758
 20
336.7968595626339
 11
76.1312732200758
 21
337.7399378037777
 72
     1
 10
76.1312732200758
 20
337.7399378037777
 11
76.89004080785608
 21
337.7399378037777
 72
     2
 10
76.89004080785608
 20
338.7953034451114
 40
1.055365641333708
 50
270.0
 51
450.0
 73
     1
 72
     1
 10
76.89004080785608
 20
339.8506690864451
 11
74.89076880982168
 21
339.8506690864451
 97
        6
330
1F6
330
153
330
149
330
148
330
155
330
154
 92
       16
 93
        4
 72
     1
 10
76.4485682816177
 20
339.187563241005
 11
76.1312732200758
 21
339.187563241005
 72
     1
 10
76.1312732200758
 20
339.187563241005
 11
76.1312732200758
 21
338.4818355916628
 72
     1
 10
76.1312732200758
 20
338.4818355916628
 11
76.4485682816177
 21
338.4818355916628
 72
     2
 10
76.4485682816177
 20
338.8346994163339
 40
0.3528638246710898
 50
270.0
 51
450.0
 73
     1
 97
        4
330
156
330
147
330
157
330
1E2
 75
     1
 76
     0
 52
45.0
 41
0.1
 77
     0
 78
     1
 53
45.0
 43
0.0
 44
0.0
 45
-0.0707106781186548
 46
0.0707106781186548
 79
     0
 98
        1
 10
0.0
 20
0.0
  0
HATCH
  5
23A
330
71
100
AcDbEntity
  8
1
  6
Continuous
 62
     2
100
AcDbHatch
 10
0.0
 20
0.0
 30
0.0
210
0.0
220
0.0
230
1.0
  2
_USER
 70
     0
 71
     1
 91
        1
 92
        1
 93
       12
 72
     1
 10
94.50505200425488
 20
339.8506690864451
 11
95.9077762220021
 21
339.8506690864451
 72
     1
 10
95.9077762220021
 20
339.8506690864451
 11
94.60524659123558
 21
338.3777185564089
 72
     1
 10
94.60524659123558
 20
338.3777185564089
 11
96.00319963817589
 21
336.7968595626339
 72
     1
 10
96.00319963817589
 20
336.7968595626339
 11
94.60047542042759
 21
336.7968595626339
 72
     1
 10
94.60047542042759
 20
336.7968595626339
 11
93.90388448236209
 21
337.5845913479276
 72
     1
 10
93.90388448236209
 20
337.5845913479276
 11
93.20729354429639
 21
336.7968595626339
 72
     1
 10
93.20729354429639
 20
336.7968595626339
 11
91.80456932654818
 21
336.7968595626339
 72
     1
 10
91.80456932654818
 20
336.7968595626339
 11
93.20252237348848
 21
338.3777185564089
 72
     1
 10
93.20252237348848
 20
338.3777185564089
 11
91.899992742721
 21
339.8506690864451
 72
     1
 10
91.899992742721
 20
339.8506690864451
 11
93.30271696047029
 21
339.8506690864451
 72
     1
 10
93.30271696047029
 20
339.8506690864451
 11
93.90388448236209
 21
339.1708457648896
 72
     1
 10
93.90388448236209
 20
339.1708457648896
 11
94.50505200425488
 21
339.8506690864451
 97
       12
330
122
330
17B
330
17A
330
179
330
178
330
123
330
124
330
120
330
121
330
17E
330
17D
330
17C
 75
     1
 76
     0
 52
45.0
 41
0.1
 77
     0
 78
     1
 53
45.0
 43
0.0
 44
0.0
 45
-0.0707106781186548
 46
0.0707106781186548
 79
     0
 98
        1
 10
0.0
 20
0.0
  0
HATCH
  5
23B
330
71
100
AcDbEntity
  8
1
  6
Continuous
 62
     2
100
AcDbHatch
 10
0.0
 20
0.0
 30
0.0
210
0.0
220
0.0
230
1.0
  2
_USER
 70
     0
 71
     1
 91
        1
 92
        1
 93
       12
 72
     1
 10
94.50505200425488
 20
339.8506690864451
 11
95.9077762220021
 21
339.8506690864451
 72
     1
 10
95.9077762220021
 20
339.8506690864451
 11
94.60524659123558
 21
338.3777185564089
 72
     1
 10
94.60524659123558
 20
338.3777185564089
 11
96.00319963817589
 21
336.7968595626339
 72
     1
 10
96.00319963817589
 20
336.7968595626339
 11
94.60047542042759
 21
336.7968595626339
 72
     1
 10
94.60047542042759
 20
336.7968595626339
 11
93.90388448236209
 21
337.5845913479276
 72
     1
 10
93.90388448236209
 20
337.5845913479276
 11
93.20729354429639
 21
336.7968595626339
 72
     1
 10
93.20729354429639
 20
336.7968595626339
 11
91.80456932654818
 21
336.7968595626339
 72
     1
 10
91.80456932654818
 20
336.7968595626339
 11
93.20252237348848
 21
338.3777185564089
 72
     1
 10
93.20252237348848
 20
338.3777185564089
 11
91.899992742721
 21
339.8506690864451
 72
     1
 10
91.899992742721
 20
339.8506690864451
 11
93.30271696047029
 21
339.8506690864451
 72
     1
 10
93.30271696047029
 20
339.8506690864451
 11
93.90388448236209
 21
339.1708457648896
 72
     1
 10
93.90388448236209
 20
339.1708457648896
 11
94.50505200425488
 21
339.8506690864451
 97
       12
330
122
330
17B
330
17A
330
179
330
178
330
123
330
124
330
120
330
121
330
17E
330
17D
330
17C
 75
     1
 76
     0
 52
45.0
 41
0.1
 77
     0
 78
     1
 53
45.0
 43
0.0
 44
0.0
 45
-0.0707106781186548
 46
0.0707106781186548
 79
     0
 98
        1
 10
0.0
 20
0.0
  0
HATCH
  5
23C
330
71
100
AcDbEntity
  8
1
  6
Continuous
 62
     2
100
AcDbHatch
 10
0.0
 20
0.0
 30
0.0
210
0.0
220
0.0
230
1.0
  2
_USER
 70
     0
 71
     1
 91
        1
 92
        1
 93
        4
 72
     1
 10
91.6852900563313
 20
339.8506690864451
 11
91.6852900563313
 21
336.7968595626339
 72
     1
 10
91.6852900563313
 20
336.7968595626339
 11
90.4447856460784
 21
336.7968595626339
 72
     1
 10
90.4447856460784
 20
336.7968595626339
 11
90.4447856460784
 21
339.8506690864451
 72
     1
 10
90.4447856460784
 20
339.8506690864451
 11
91.6852900563313
 21
339.8506690864451
 97
        4
330
176
330
125
330
175
330
177
 75
     1
 76
     0
 52
45.0
 41
0.1
 77
     0
 78
     1
 53
45.0
 43
0.0
 44
0.0
 45
-0.0707106781186548
 46
0.0707106781186548
 79
     0
 98
        1
 10
0.0
 20
0.0
  0
HATCH
  5
23D
330
71
100
AcDbEntity
  8
1
  6
Continuous
 62
     2
100
AcDbHatch
 10
0.0
 20
0.0
 30
0.0
210
0.0
220
0.0
230
1.0
  2
_USER
 70
     0
 71
     1
 91
        1
 92
        1
 93
        4
 72
     1
 10
91.6852900563313
 20
339.8506690864451
 11
91.6852900563313
 21
336.7968595626339
 72
     1
 10
91.6852900563313
 20
336.7968595626339
 11
90.4447856460784
 21
336.7968595626339
 72
     1
 10
90.4447856460784
 20
336.7968595626339
 11
90.4447856460784
 21
339.8506690864451
 72
     1
 10
90.4447856460784
 20
339.8506690864451
 11
91.6852900563313
 21
339.8506690864451
 97
        4
330
176
330
125
330
175
330
177
 75
     1
 76
     0
 52
45.0
 41
0.1
 77
     0
 78
     1
 53
45.0
 43
0.0
 44
0.0
 45
-0.0707106781186548
 46
0.0707106781186548
 79
     0
 98
        1
 10
0.0
 20
0.0
  0
HATCH
  5
23E
330
71
100
AcDbEntity
  8
1
  6
Continuous
 62
     2
100
AcDbHatch
 10
0.0
 20
0.0
 30
0.0
210
0.0
220
0.0
230
1.0
  2
_USER
 70
     0
 71
     1
 91
        2
 92
        1
 93
        8
 72
     1
 10
91.2948460527993
 20
333.4376690864596
 11
90.05434164254538
 21
333.4376690864596
 72
     1
 10
90.05434164254538
 20
333.4376690864596
 11
89.8428615890696
 21
333.9786296306775
 72
     1
 10
89.8428615890696
 20
333.9786296306775
 11
88.71042001239579
 21
333.9786296306775
 72
     1
 10
88.71042001239579
 20
333.9786296306775
 11
88.49893995891998
 21
333.4376690864596
 72
     1
 10
88.49893995891998
 20
333.4376690864596
 11
87.258435548667
 21
333.4376690864596
 72
     1
 10
87.258435548667
 20
333.4376690864596
 11
88.6563885956063
 21
336.4914786102707
 72
     1
 10
88.6563885956063
 20
336.4914786102707
 11
89.896893005859
 21
336.4914786102707
 72
     1
 10
89.896893005859
 20
336.4914786102707
 11
91.2948460527993
 21
333.4376690864596
 97
        8
330
171
330
12B
330
170
330
173
330
128
330
172
330
129
330
12A
 92
       16
 93
        3
 72
     1
 10
88.97647556354079
 20
334.6591928959841
 11
89.57680603792329
 21
334.6591928959841
 72
     1
 10
89.57680603792329
 20
334.6591928959841
 11
89.27664080073319
 21
335.4270078619708
 72
     1
 10
89.27664080073319
 20
335.4270078619708
 11
88.97647556354079
 21
334.6591928959841
 97
        3
330
127
330
126
330
174
 75
     1
 76
     0
 52
45.0
 41
0.1
 77
     0
 78
     1
 53
45.0
 43
0.0
 44
0.0
 45
-0.0707106781186548
 46
0.0707106781186548
 79
     0
 98
        1
 10
0.0
 20
0.0
  0
HATCH
  5
23F
330
71
100
AcDbEntity
  8
1
  6
Continuous
 62
     2
100
AcDbHatch
 10
0.0
 20
0.0
 30
0.0
210
0.0
220
0.0
230
1.0
  2
_USER
 70
     0
 71
     1
 91
        2
 92
        1
 93
        8
 72
     1
 10
91.2948460527993
 20
333.4376690864596
 11
90.05434164254538
 21
333.4376690864596
 72
     1
 10
90.05434164254538
 20
333.4376690864596
 11
89.8428615890696
 21
333.9786296306775
 72
     1
 10
89.8428615890696
 20
333.9786296306775
 11
88.71042001239579
 21
333.9786296306775
 72
     1
 10
88.71042001239579
 20
333.9786296306775
 11
88.49893995891998
 21
333.4376690864596
 72
     1
 10
88.49893995891998
 20
333.4376690864596
 11
87.258435548667
 21
333.4376690864596
 72
     1
 10
87.258435548667
 20
333.4376690864596
 11
88.6563885956063
 21
336.4914786102707
 72
     1
 10
88.6563885956063
 20
336.4914786102707
 11
89.896893005859
 21
336.4914786102707
 72
     1
 10
89.896893005859
 20
336.4914786102707
 11
91.2948460527993
 21
333.4376690864596
 97
        8
330
171
330
12B
330
170
330
173
330
128
330
172
330
129
330
12A
 92
       16
 93
        3
 72
     1
 10
88.97647556354079
 20
334.6591928959841
 11
89.57680603792329
 21
334.6591928959841
 72
     1
 10
89.57680603792329
 20
334.6591928959841
 11
89.27664080073319
 21
335.4270078619708
 72
     1
 10
89.27664080073319
 20
335.4270078619708
 11
88.97647556354079
 21
334.6591928959841
 97
        3
330
127
330
126
330
174
 75
     1
 76
     0
 52
45.0
 41
0.1
 77
     0
 78
     1
 53
45.0
 43
0.0
 44
0.0
 45
-0.0707106781186548
 46
0.0707106781186548
 79
     0
 98
        1
 10
0.0
 20
0.0
  0
HATCH
  5
240
330
71
100
AcDbEntity
  8
1
  6
Continuous
 62
     2
100
AcDbHatch
 10
0.0
 20
0.0
 30
0.0
210
0.0
220
0.0
230
1.0
  2
_USER
 70
     0
 71
     1
 91
        1
 92
        1
 93
        8
 72
     1
 10
85.10092340948478
 20
336.4914786102707
 11
85.10092340948478
 21
335.7062133041471
 72
     1
 10
85.10092340948478
 20
335.7062133041471
 11
85.91202244695938
 21
335.7062133041471
 72
     1
 10
85.91202244695938
 20
335.7062133041471
 11
85.91202244695938
 21
333.4376690864596
 72
     1
 10
85.91202244695938
 20
333.4376690864596
 11
87.1048151491259
 21
333.4376690864596
 72
     1
 10
87.1048151491259
 20
333.4376690864596
 11
87.1048151491259
 21
335.7062133041471
 72
     1
 10
87.1048151491259
 20
335.7062133041471
 11
87.9159141865984
 21
335.7062133041471
 72
     1
 10
87.9159141865984
 20
335.7062133041471
 11
87.9159141865984
 21
336.4914786102707
 72
     1
 10
87.9159141865984
 20
336.4914786102707
 11
85.10092340948478
 21
336.4914786102707
 97
        8
330
16D
330
16C
330
16B
330
12C
330
12D
330
16F
330
12E
330
16E
 75
     1
 76
     0
 52
45.0
 41
0.1
 77
     0
 78
     1
 53
45.0
 43
0.0
 44
0.0
 45
-0.0707106781186548
 46
0.0707106781186548
 79
     0
 98
        1
 10
0.0
 20
0.0
  0
HATCH
  5
241
330
71
100
AcDbEntity
  8
1
  6
Continuous
 62
     2
100
AcDbHatch
 10
0.0
 20
0.0
 30
0.0
210
0.0
220
0.0
230
1.0
  2
_USER
 70
     0
 71
     1
 91
        1
 92
        1
 93
        8
 72
     1
 10
85.10092340948478
 20
336.4914786102707
 11
85.10092340948478
 21
335.7062133041471
 72
     1
 10
85.10092340948478
 20
335.7062133041471
 11
85.91202244695938
 21
335.7062133041471
 72
     1
 10
85.91202244695938
 20
335.7062133041471
 11
85.91202244695938
 21
333.4376690864596
 72
     1
 10
85.91202244695938
 20
333.4376690864596
 11
87.1048151491259
 21
333.4376690864596
 72
     1
 10
87.1048151491259
 20
333.4376690864596
 11
87.1048151491259
 21
335.7062133041471
 72
     1
 10
87.1048151491259
 20
335.7062133041471
 11
87.9159141865984
 21
335.7062133041471
 72
     1
 10
87.9159141865984
 20
335.7062133041471
 11
87.9159141865984
 21
336.4914786102707
 72
     1
 10
87.9159141865984
 20
336.4914786102707
 11
85.10092340948478
 21
336.4914786102707
 97
        8
330
16D
330
16C
330
16B
330
12C
330
12D
330
16F
330
12E
330
16E
 75
     1
 76
     0
 52
45.0
 41
0.1
 77
     0
 78
     1
 53
45.0
 43
0.0
 44
0.0
 45
-0.0707106781186548
 46
0.0707106781186548
 79
     0
 98
        1
 10
0.0
 20
0.0
  0
HATCH
  5
242
330
71
100
AcDbEntity
  8
1
  6
Continuous
 62
     2
100
AcDbHatch
 10
0.0
 20
0.0
 30
0.0
210
0.0
220
0.0
230
1.0
  2
_USER
 70
     0
 71
     1
 91
        1
 92
        1
 93
       10
 72
     1
 10
87.7729299932239
 20
339.8506690864451
 11
86.58013729105738
 21
339.8506690864451
 72
     1
 10
86.58013729105738
 20
339.8506690864451
 11
86.58013729105738
 21
336.7968595626339
 72
     1
 10
86.58013729105738
 20
336.7968595626339
 11
87.7729299932239
 21
336.7968595626339
 72
     1
 10
87.7729299932239
 20
336.7968595626339
 11
87.7729299932239
 21
338.1056350728386
 72
     1
 10
87.7729299932239
 20
338.1056350728386
 11
89.0134344034779
 21
336.7968595626339
 72
     1
 10
89.0134344034779
 20
336.7968595626339
 11
90.2062271056445
 21
336.7968595626339
 72
     1
 10
90.2062271056445
 20
336.7968595626339
 11
90.2062271056445
 21
339.8506690864451
 72
     1
 10
90.2062271056445
 20
339.8506690864451
 11
89.0134344034779
 21
339.8506690864451
 72
     1
 10
89.0134344034779
 20
339.8506690864451
 11
89.0134344034779
 21
338.5418935762399
 72
     1
 10
89.0134344034779
 20
338.5418935762399
 11
87.7729299932239
 21
339.8506690864451
 97
       10
330
167
330
131
330
132
330
133
330
134
330
16A
330
12F
330
169
330
168
330
130
 75
     1
 76
     0
 52
45.0
 41
0.1
 77
     0
 78
     1
 53
45.0
 43
0.0
 44
0.0
 45
-0.0707106781186548
 46
0.0707106781186548
 79
     0
 98
        1
 10
0.0
 20
0.0
  0
HATCH
  5
243
330
71
100
AcDbEntity
  8
1
  6
Continuous
 62
     2
100
AcDbHatch
 10
0.0
 20
0.0
 30
0.0
210
0.0
220
0.0
230
1.0
  2
_USER
 70
     0
 71
     1
 91
        1
 92
        1
 93
       10
 72
     1
 10
87.7729299932239
 20
339.8506690864451
 11
86.58013729105738
 21
339.8506690864451
 72
     1
 10
86.58013729105738
 20
339.8506690864451
 11
86.58013729105738
 21
336.7968595626339
 72
     1
 10
86.58013729105738
 20
336.7968595626339
 11
87.7729299932239
 21
336.7968595626339
 72
     1
 10
87.7729299932239
 20
336.7968595626339
 11
87.7729299932239
 21
338.1056350728386
 72
     1
 10
87.7729299932239
 20
338.1056350728386
 11
89.0134344034779
 21
336.7968595626339
 72
     1
 10
89.0134344034779
 20
336.7968595626339
 11
90.2062271056445
 21
336.7968595626339
 72
     1
 10
90.2062271056445
 20
336.7968595626339
 11
90.2062271056445
 21
339.8506690864451
 72
     1
 10
90.2062271056445
 20
339.8506690864451
 11
89.0134344034779
 21
339.8506690864451
 72
     1
 10
89.0134344034779
 20
339.8506690864451
 11
89.0134344034779
 21
338.5418935762399
 72
     1
 10
89.0134344034779
 20
338.5418935762399
 11
87.7729299932239
 21
339.8506690864451
 97
       10
330
167
330
131
330
132
330
133
330
134
330
16A
330
12F
330
169
330
168
330
130
 75
     1
 76
     0
 52
45.0
 41
0.1
 77
     0
 78
     1
 53
45.0
 43
0.0
 44
0.0
 45
-0.0707106781186548
 46
0.0707106781186548
 79
     0
 98
        1
 10
0.0
 20
0.0
  0
HATCH
  5
244
330
71
100
AcDbEntity
  8
1
  6
Continuous
 62
     2
100
AcDbHatch
 10
0.0
 20
0.0
 30
0.0
210
0.0
220
0.0
230
1.0
  2
_USER
 70
     0
 71
     1
 91
        1
 92
        1
 93
       10
 72
     1
 10
82.52449117280528
 20
336.4914786102707
 11
81.33169847063769
 21
336.4914786102707
 72
     1
 10
81.33169847063769
 20
336.4914786102707
 11
81.33169847063769
 21
333.4376690864596
 72
     1
 10
81.33169847063769
 20
333.4376690864596
 11
82.52449117280528
 21
333.4376690864596
 72
     1
 10
82.52449117280528
 20
333.4376690864596
 11
82.52449117280528
 21
334.7464445966642
 72
     1
 10
82.52449117280528
 20
334.7464445966642
 11
83.76499558305818
 21
333.4376690864596
 72
     1
 10
83.76499558305818
 20
333.4376690864596
 11
84.95778828522458
 21
333.4376690864596
 72
     1
 10
84.95778828522458
 20
333.4376690864596
 11
84.95778828522458
 21
336.4914786102707
 72
     1
 10
84.95778828522458
 20
336.4914786102707
 11
83.76499558305818
 21
336.4914786102707
 72
     1
 10
83.76499558305818
 20
336.4914786102707
 11
83.76499558305818
 21
335.1827031000656
 72
     1
 10
83.76499558305818
 20
335.1827031000656
 11
82.52449117280528
 21
336.4914786102707
 97
       10
330
136
330
137
330
138
330
164
330
139
330
13A
330
163
330
166
330
165
330
135
 75
     1
 76
     0
 52
45.0
 41
0.1
 77
     0
 78
     1
 53
45.0
 43
0.0
 44
0.0
 45
-0.0707106781186548
 46
0.0707106781186548
 79
     0
 98
        1
 10
0.0
 20
0.0
  0
HATCH
  5
245
330
71
100
AcDbEntity
  8
1
  6
Continuous
 62
     2
100
AcDbHatch
 10
0.0
 20
0.0
 30
0.0
210
0.0
220
0.0
230
1.0
  2
_USER
 70
     0
 71
     1
 91
        1
 92
        1
 93
       10
 72
     1
 10
82.52449117280528
 20
336.4914786102707
 11
81.33169847063769
 21
336.4914786102707
 72
     1
 10
81.33169847063769
 20
336.4914786102707
 11
81.33169847063769
 21
333.4376690864596
 72
     1
 10
81.33169847063769
 20
333.4376690864596
 11
82.52449117280528
 21
333.4376690864596
 72
     1
 10
82.52449117280528
 20
333.4376690864596
 11
82.52449117280528
 21
334.7464445966642
 72
     1
 10
82.52449117280528
 20
334.7464445966642
 11
83.76499558305818
 21
333.4376690864596
 72
     1
 10
83.76499558305818
 20
333.4376690864596
 11
84.95778828522458
 21
333.4376690864596
 72
     1
 10
84.95778828522458
 20
333.4376690864596
 11
84.95778828522458
 21
336.4914786102707
 72
     1
 10
84.95778828522458
 20
336.4914786102707
 11
83.76499558305818
 21
336.4914786102707
 72
     1
 10
83.76499558305818
 20
336.4914786102707
 11
83.76499558305818
 21
335.1827031000656
 72
     1
 10
83.76499558305818
 20
335.1827031000656
 11
82.52449117280528
 21
336.4914786102707
 97
       10
330
136
330
137
330
138
330
164
330
139
330
13A
330
163
330
166
330
165
330
135
 75
     1
 76
     0
 52
45.0
 41
0.1
 77
     0
 78
     1
 53
45.0
 43
0.0
 44
0.0
 45
-0.0707106781186548
 46
0.0707106781186548
 79
     0
 98
        1
 10
0.0
 20
0.0
  0
HATCH
  5
246
330
71
100
AcDbEntity
  8
1
  6
Continuous
 62
     2
100
AcDbHatch
 10
0.0
 20
0.0
 30
0.0
210
0.0
220
0.0
230
1.0
  2
_USER
 70
     0
 71
     1
 91
        1
 92
        1
 93
       12
 72
     1
 10
81.52269623386988
 20
339.8506690864451
 11
81.52269623386988
 21
336.7968595626339
 72
     1
 10
81.52269623386988
 20
336.7968595626339
 11
80.32990353170348
 21
336.7968595626339
 72
     1
 10
80.32990353170348
 20
336.7968595626339
 11
80.32990353170348
 21
337.9311316714777
 72
     1
 10
80.32990353170348
 20
337.9311316714777
 11
79.280245953796
 21
337.9311316714777
 72
     1
 10
79.280245953796
 20
337.9311316714777
 11
79.280245953796
 21
336.7968595626339
 72
     1
 10
79.280245953796
 20
336.7968595626339
 11
78.0874532516294
 21
336.7968595626339
 72
     1
 10
78.0874532516294
 20
336.7968595626339
 11
78.0874532516294
 21
339.8506690864451
 72
     1
 10
78.0874532516294
 20
339.8506690864451
 11
79.280245953796
 21
339.8506690864451
 72
     1
 10
79.280245953796
 20
339.8506690864451
 11
79.280245953796
 21
338.7818357531105
 72
     1
 10
79.280245953796
 20
338.7818357531105
 11
80.32990353170348
 21
338.7818357531105
 72
     1
 10
80.32990353170348
 20
338.7818357531105
 11
80.32990353170348
 21
339.8506690864451
 72
     1
 10
80.32990353170348
 20
339.8506690864451
 11
81.52269623386988
 21
339.8506690864451
 97
       12
330
15E
330
15D
330
15C
330
144
330
145
330
15B
330
146
330
15A
330
159
330
158
330
142
330
143
 75
     1
 76
     0
 52
45.0
 41
0.1
 77
     0
 78
     1
 53
45.0
 43
0.0
 44
0.0
 45
-0.0707106781186548
 46
0.0707106781186548
 79
     0
 98
        1
 10
0.0
 20
0.0
  0
HATCH
  5
247
330
71
100
AcDbEntity
  8
1
  6
Continuous
 62
     2
100
AcDbHatch
 10
0.0
 20
0.0
 30
0.0
210
0.0
220
0.0
230
1.0
  2
_USER
 70
     0
 71
     1
 91
        1
 92
        1
 93
       12
 72
     1
 10
81.52269623386988
 20
339.8506690864451
 11
81.52269623386988
 21
336.7968595626339
 72
     1
 10
81.52269623386988
 20
336.7968595626339
 11
80.32990353170348
 21
336.7968595626339
 72
     1
 10
80.32990353170348
 20
336.7968595626339
 11
80.32990353170348
 21
337.9311316714777
 72
     1
 10
80.32990353170348
 20
337.9311316714777
 11
79.280245953796
 21
337.9311316714777
 72
     1
 10
79.280245953796
 20
337.9311316714777
 11
79.280245953796
 21
336.7968595626339
 72
     1
 10
79.280245953796
 20
336.7968595626339
 11
78.0874532516294
 21
336.7968595626339
 72
     1
 10
78.0874532516294
 20
336.7968595626339
 11
78.0874532516294
 21
339.8506690864451
 72
     1
 10
78.0874532516294
 20
339.8506690864451
 11
79.280245953796
 21
339.8506690864451
 72
     1
 10
79.280245953796
 20
339.8506690864451
 11
79.280245953796
 21
338.7818357531105
 72
     1
 10
79.280245953796
 20
338.7818357531105
 11
80.32990353170348
 21
338.7818357531105
 72
     1
 10
80.32990353170348
 20
338.7818357531105
 11
80.32990353170348
 21
339.8506690864451
 72
     1
 10
80.32990353170348
 20
339.8506690864451
 11
81.52269623386988
 21
339.8506690864451
 97
       12
330
15E
330
15D
330
15C
330
144
330
145
330
15B
330
146
330
15A
330
159
330
158
330
142
330
143
 75
     1
 76
     0
 52
45.0
 41
0.1
 77
     0
 78
     1
 53
45.0
 43
0.0
 44
0.0
 45
-0.0707106781186548
 46
0.0707106781186548
 79
     0
 98
        1
 10
0.0
 20
0.0
  0
ENDBLK
  5
73
330
71
100
AcDbEntity
  8
0
100
AcDbBlockEnd
  0
BLOCK
  5
75
330
74
100
AcDbEntity
  8
0
100
AcDbBlockBegin
  2
_punkt
 70
     0
 10
193.4000000476588
 20
326.1441690864433
 30
0.0
  3
_punkt
  1

  0
LINE
  5
248
330
74
100
AcDbEntity
  8
1
  6
Continuous
 62
     2
100
AcDbLine
 10
193.4000000476588
 20
326.1441690864433
 30
0.0
 11
193.4000000476588
 21
321.1441690864432
 31
0.0
  0
LINE
  5
249
330
74
100
AcDbEntity
  8
1
  6
Continuous
 62
     2
100
AcDbLine
 10
193.4000000476588
 20
326.1441690864433
 30
0.0
 11
198.4000000476578
 21
326.1441690864433
 31
0.0
  0
ENDBLK
  5
76
330
74
100
AcDbEntity
  8
0
100
AcDbBlockEnd
  0
BLOCK
  5
7A
330
77
100
AcDbEntity
  8
0
100
AcDbBlockBegin
  2
A4I_CS
 70
     0
 10
193.4000000476588
 20
321.1441690864432
 30
0.0
  3
A4I_CS
  1

  0
INSERT
  5
78
330
77
100
AcDbEntity
  8
1
100
AcDbBlockReference
  2
_rahmen
 10
193.4000000476588
 20
321.1441690864432
 30
0.0
  0
INSERT
  5
79
330
77
100
AcDbEntity
  8
1
100
AcDbBlockReference
  2
_punkt
 10
193.4000000476588
 20
326.1441690864433
 30
0.0
  0
ENDBLK
  5
7B
330
77
100
AcDbEntity
  8
0
100
AcDbBlockEnd
  0
BLOCK
  5
84
330
7C
100
AcDbEntity
  8
0
100
AcDbBlockBegin
  2
1
 70
     0
 10
0.0
 20
0.0
 30
0.0
  3
1
  1

  0
INSERT
  5
7D
330
7C
100
AcDbEntity
  8
0
100
AcDbBlockReference
  2
AllgSicht1
 10
137.80000200002
 20
404.00000000003
 30
0.0
  0
INSERT
  5
7E
330
7C
100
AcDbEntity
  8
0
100
AcDbBlockReference
  2
Drfsicht1
 10
11.00000000003001
 20
397.0
 30
0.0
  0
INSERT
  5
7F
330
7C
100
AcDbEntity
  8
0
100
AcDbBlockReference
  2
Rckans1
 10
137.8000016212214
 20
462.7499992028279
 30
0.0
  0
INSERT
  5
80
330
7C
100
AcDbEntity
  8
0
100
AcDbBlockReference
  2
SA_Links1
 10
74.40000081062317
 20
462.7499992028277
 30
0.0
  0
INSERT
  5
81
330
7C
100
AcDbEntity
  8
0
100
AcDbBlockReference
  2
SA_Rechts1
 10
-68.40000081062314
 20
462.7499992028279
 30
0.0
  0
INSERT
  5
82
330
7C
100
AcDbEntity
  8
0
100
AcDbBlockReference
  2
Vordans1
 10
11.00000000003018
 20
462.7499992028277
 30
0.0
  0
INSERT
  5
83
330
7C
100
AcDbEntity
  8
0
100
AcDbBlockReference
  2
A4I_CS
 10
193.4000000476588
 20
321.1441690864432
 30
0.0
  0
ENDBLK
  5
85
330
7C
100
AcDbEntity
  8
0
100
AcDbBlockEnd
  0
BLOCK
  5
B9
330
B0
100
AcDbEntity
  8
0
100
AcDbBlockBegin
  2
*D17
 70
     1
 10
0.0
 20
0.0
 30
0.0
  3
*D17
  1

  0
LINE
  5
B1
330
B0
100
AcDbEntity
  8
1
  6
Continuous
 62
     2
100
AcDbLine
 10
-26.6314772800939
 20
413.145400847791
 30
0.0
 11
-26.6314772800939
 21
398.0999999761581
 31
0.0
  0
LINE
  5
B2
330
B0
100
AcDbEntity
  8
1
  6
Continuous
 62
     2
100
AcDbLine
 10
-26.6314772800939
 20
398.0999999761581
 30
0.0
 11
-26.6314772800939
 21
395.8999999761581
 31
0.0
  0
LINE
  5
B3
330
B0
100
AcDbEntity
  8
1
  6
Continuous
 62
     2
100
AcDbLine
 10
-26.6314772800939
 20
395.8999999761581
 30
0.0
 11
-26.6314772800939
 21
388.8999999761581
 31
0.0
  0
LINE
  5
B4
330
B0
100
AcDbEntity
  8
1
  6
Continuous
 62
     2
100
AcDbLine
 10
-14.39999928468929
 20
398.0999999761581
 30
0.0
 11
-28.1314772800939
 21
398.0999999761581
 31
0.0
  0
LINE
  5
B5
330
B0
100
AcDbEntity
  8
1
  6
Continuous
 62
     2
100
AcDbLine
 10
-14.39999928468929
 20
395.8999999761581
 30
0.0
 11
-28.1314772800939
 21
395.8999999761581
 31
0.0
  0
SOLID
  5
B6
330
B0
100
AcDbEntity
  8
1
 62
     2
100
AcDbTrace
 10
-27.09226102164979
 20
401.5999999761581
 30
0.0
 11
-26.17069353853801
 21
401.5999999761581
 31
0.0
 12
-26.6314772800939
 22
398.0999999761581
 32
0.0
 13
-26.6314772800939
 23
398.0999999761581
 33
0.0
  0
SOLID
  5
B7
330
B0
100
AcDbEntity
  8
1
 62
     2
100
AcDbTrace
 10
-26.17069353853802
 20
392.3999999761581
 30
0.0
 11
-27.09226102164979
 21
392.3999999761581
 31
0.0
 12
-26.6314772800939
 22
395.8999999761581
 32
0.0
 13
-26.6314772800939
 23
395.8999999761581
 33
0.0
  0
MTEXT
  5
B8
330
B0
100
AcDbEntity
  8
1
 62
     3
100
AcDbMText
 10
-28.4814772800939
 20
406.670400847791
 30
0.0
 40
3.5
 41
0.0
 71
     7
 72
     1
  1
2,2
  7
CONVERTER_11
 11
0.0
 21
1.0
 31
0.0
 73
     1
 44
0.60024009603842
  0
ENDBLK
  5
BA
330
B0
100
AcDbEntity
  8
0
100
AcDbBlockEnd
  0
BLOCK
  5
102
330
FB
100
AcDbEntity
  8
0
100
AcDbBlockBegin
  2
*D18
 70
     1
 10
0.0
 20
0.0
 30
0.0
  3
*D18
  1

  0
LINE
  5
FC
330
FB
100
AcDbEntity
  8
1
  6
Continuous
 62
     2
100
AcDbLine
 10
-14.3999992846891
 20
426.3964384682319
 30
0.0
 11
36.40000071530996
 21
426.3964384682319
 31
0.0
  0
LINE
  5
FD
330
FB
100
AcDbEntity
  8
1
  6
Continuous
 62
     2
100
AcDbLine
 10
-14.3999992846891
 20
451.5000000236633
 30
0.0
 11
-14.3999992846891
 21
424.8964384682319
 31
0.0
  0
LINE
  5
FE
330
FB
100
AcDbEntity
  8
1
  6
Continuous
 62
     2
100
AcDbLine
 10
36.40000071530996
 20
448.1000000236593
 30
0.0
 11
36.40000071530996
 21
424.8964384682319
 31
0.0
  0
SOLID
  5
FF
330
FB
100
AcDbEntity
  8
1
 62
     2
100
AcDbTrace
 10
-10.8999992846891
 20
426.8572222097878
 30
0.0
 11
-10.8999992846891
 21
425.935654726676
 31
0.0
 12
-14.3999992846891
 22
426.3964384682319
 32
0.0
 13
-14.3999992846891
 23
426.3964384682319
 33
0.0
  0
SOLID
  5
100
330
FB
100
AcDbEntity
  8
1
 62
     2
100
AcDbTrace
 10
32.90000071530996
 20
425.935654726676
 30
0.0
 11
32.90000071530996
 21
426.8572222097878
 31
0.0
 12
36.40000071530996
 22
426.3964384682319
 32
0.0
 13
36.40000071530996
 23
426.3964384682319
 33
0.0
  0
MTEXT
  5
101
330
FB
100
AcDbEntity
  8
1
 62
     3
100
AcDbMText
 10
6.62739851927688
 20
428.2464384682319
 30
0.0
 40
3.5
 41
0.0
 71
     7
 72
     1
  1
50,8
  7
CONVERTER_11
 11
0.9999999999970619
 21
2.424068405545306E-6
 31
0.0
 73
     1
 44
0.60024009603842
  0
ENDBLK
  5
103
330
FB
100
AcDbEntity
  8
0
100
AcDbBlockEnd
  0
BLOCK
  5
10D
330
106
100
AcDbEntity
  8
0
100
AcDbBlockBegin
  2
*D19
 70
     1
 10
0.0
 20
0.0
 30
0.0
  3
*D19
  1

  0
LINE
  5
107
330
106
100
AcDbEntity
  8
1
  6
Continuous
 62
     2
100
AcDbLine
 10
-30.09758311856572
 20
480.4000000236594
 30
0.0
 11
-30.09758311856572
 21
445.1000000236595
 31
0.0
  0
LINE
  5
108
330
106
100
AcDbEntity
  8
1
  6
Continuous
 62
     2
100
AcDbLine
 10
5.48297373870489
 20
480.4000000236594
 30
0.0
 11
-31.59758311856572
 21
480.4000000236594
 31
0.0
  0
LINE
  5
109
330
106
100
AcDbEntity
  8
1
  6
Continuous
 62
     2
100
AcDbLine
 10
-10.9166554515783
 20
445.1000000236595
 30
0.0
 11
-31.59758311856572
 21
445.1000000236595
 31
0.0
  0
SOLID
  5
10A
330
106
100
AcDbEntity
  8
1
 62
     2
100
AcDbTrace
 10
-29.63679937700984
 20
476.9000000236594
 30
0.0
 11
-30.55836686012161
 21
476.9000000236594
 31
0.0
 12
-30.09758311856572
 22
480.4000000236594
 32
0.0
 13
-30.09758311856572
 23
480.4000000236594
 33
0.0
  0
SOLID
  5
10B
330
106
100
AcDbEntity
  8
1
 62
     2
100
AcDbTrace
 10
-30.55836686012161
 20
448.6000000236595
 30
0.0
 11
-29.63679937700983
 21
448.6000000236595
 31
0.0
 12
-30.09758311856572
 22
445.1000000236595
 32
0.0
 13
-30.09758311856572
 23
445.1000000236595
 33
0.0
  0
MTEXT
  5
10C
330
106
100
AcDbEntity
  8
1
 62
     3
100
AcDbMText
 10
-31.94758311856572
 20
457.04601080008
 30
0.0
 40
3.5
 41
0.0
 71
     7
 72
     1
  1
35,3
  7
CONVERTER_11
 11
0.0
 21
1.0
 31
0.0
 73
     1
 44
0.60024009603842
  0
ENDBLK
  5
10E
330
106
100
AcDbEntity
  8
0
100
AcDbBlockEnd
  0
ENDSEC
  0
SECTION
  2
ENTITIES
  0
INSERT
  5
86
330
1F
100
AcDbEntity
  8
1
100
AcDbBlockReference
  2
1
 10
0.0
 20
0.0
 30
0.0
  0
ENDSEC
  0
SECTION
  2
OBJECTS
  0
DICTIONARY
  5
C
330
0
100
AcDbDictionary
281
     1
  3
ACAD_GROUP
350
D
  3
ACAD_LAYOUT
350
1A
  3
ACAD_MATERIAL
350
3B
  3
ACAD_MLEADERSTYLE
350
271
  3
ACAD_MLINESTYLE
350
17
  3
ACAD_PLOTSETTINGS
350
19
  3
ACAD_PLOTSTYLENAME
350
E
  3
ACAD_TABLESTYLE
350
270
  3
ACAD_VISUALSTYLE
350
2A
  0
DICTIONARY
  5
D
102
{ACAD_REACTORS
330
C
102
}
330
C
100
AcDbDictionary
281
     1
  0
DICTIONARY
  5
1A
102
{ACAD_REACTORS
330
C
102
}
330
C
100
AcDbDictionary
281
     1
  3
Layout1
350
1E
  3
Layout2
350
26
  3
Model
350
22
  0
DICTIONARY
  5
3B
102
{ACAD_REACTORS
330
C
102
}
330
C
100
AcDbDictionary
281
     1
  3
ByBlock
350
3D
  3
ByLayer
350
3C
  3
Global
350
3E
  0
DICTIONARY
  5
271
102
{ACAD_REACTORS
330
C
102
}
330
C
100
AcDbDictionary
281
     1
  0
DICTIONARY
  5
17
102
{ACAD_REACTORS
330
C
102
}
330
C
100
AcDbDictionary
281
     1
  3
Standard
350
18
  0
DICTIONARY
  5
19
102
{ACAD_REACTORS
330
C
102
}
330
C
100
AcDbDictionary
281
     1
  0
ACDBDICTIONARYWDFLT
  5
E
102
{ACAD_REACTORS
330
C
102
}
330
C
100
AcDbDictionary
281
     1
  3
Normal
350
F
100
AcDbDictionaryWithDefault
340
F
  0
DICTIONARY
  5
270
102
{ACAD_REACTORS
330
C
102
}
330
C
100
AcDbDictionary
281
     1
  0
DICTIONARY
  5
2A
102
{ACAD_REACTORS
330
C
102
}
330
C
100
AcDbDictionary
281
     1
  3
2dWireframe
350
2F
  3
3D Hidden
350
31
  3
3dWireframe
350
30
  3
Basic
350
32
  3
Brighten
350
36
  3
ColorChange
350
3A
  3
Conceptual
350
34
  3
Dim
350
35
  3
Facepattern
350
39
  3
Flat
350
2B
  3
FlatWithEdges
350
2C
  3
Gouraud
350
2D
  3
GouraudWithEdges
350
2E
  3
Linepattern
350
38
  3
Realistic
350
33
  3
Thicken
350
37
  0
LAYOUT
  5
1E
102
{ACAD_REACTORS
330
1A
102
}
330
1A
100
AcDbPlotSettings
  1

  2
none_device
  4

  6

 40
0.0
 41
0.0
 42
0.0
 43
0.0
 44
0.0
 45
0.0
 46
0.0
 47
0.0
 48
0.0
 49
0.0
140
0.0
141
0.0
142
1.0
143
1.0
 70
   688
 72
     0
 73
     0
 74
     5
  7

 75
    16
 76
     0
 77
     2
 78
   300
147
1.0
148
0.0
149
0.0
100
AcDbLayout
  1
Layout1
 70
     1
 71
     1
 10
0.0
 20
0.0
 11
12.0
 21
9.0
 12
0.0
 22
0.0
 32
0.0
 14
1.00000000000000E+20
 24
1.00000000000000E+20
 34
1.00000000000000E+20
 15
-1.00000000000000E+20
 25
-1.00000000000000E+20
 35
-1.00000000000000E+20
146
0.0
 13
0.0
 23
0.0
 33
0.0
 16
1.0
 26
0.0
 36
0.0
 17
0.0
 27
1.0
 37
0.0
 76
     0
330
1B
  0
LAYOUT
  5
26
102
{ACAD_REACTORS
330
1A
102
}
330
1A
100
AcDbPlotSettings
  1

  2
none_device
  4

  6

 40
0.0
 41
0.0
 42
0.0
 43
0.0
 44
0.0
 45
0.0
 46
0.0
 47
0.0
 48
0.0
 49
0.0
140
0.0
141
0.0
142
1.0
143
1.0
 70
   688
 72
     0
 73
     0
 74
     5
  7

 75
    16
 76
     0
 77
     2
 78
   300
147
1.0
148
0.0
149
0.0
100
AcDbLayout
  1
Layout2
 70
     1
 71
     2
 10
0.0
 20
0.0
 11
0.0
 21
0.0
 12
0.0
 22
0.0
 32
0.0
 14
0.0
 24
0.0
 34
0.0
 15
0.0
 25
0.0
 35
0.0
146
0.0
 13
0.0
 23
0.0
 33
0.0
 16
1.0
 26
0.0
 36
0.0
 17
0.0
 27
1.0
 37
0.0
 76
     0
330
23
  0
LAYOUT
  5
22
102
{ACAD_REACTORS
330
1A
102
}
330
1A
100
AcDbPlotSettings
  1

  2
none_device
  4

  6

 40
0.0
 41
0.0
 42
0.0
 43
0.0
 44
0.0
 45
0.0
 46
0.0
 47
0.0
 48
0.0
 49
0.0
140
0.0
141
0.0
142
1.0
143
1.0
 70
  1712
 72
     0
 73
     0
 74
     0
  7

 75
     0
 76
     0
 77
     2
 78
   300
147
1.0
148
0.0
149
0.0
100
AcDbLayout
  1
Model
 70
     1
 71
     0
 10
0.0
 20
0.0
 11
12.0
 21
9.0
 12
0.0
 22
0.0
 32
0.0
 14
-98.59999995234028
 24
321.1441690864432
 34
0.0
 15
198.4000000476578
 25
531.1441690864433
 35
0.0
146
0.0
 13
0.0
 23
0.0
 33
0.0
 16
1.0
 26
0.0
 36
0.0
 17
0.0
 27
1.0
 37
0.0
 76
     0
330
1F
331
29
  0
MATERIAL
  5
3D
102
{ACAD_REACTORS
330
3B
102
}
102
{ACAD_XDICTIONARY
360
26C
102
}
330
3B
100
AcDbMaterial
  1
ByBlock
  0
MATERIAL
  5
3C
102
{ACAD_REACTORS
330
3B
102
}
102
{ACAD_XDICTIONARY
360
26A
102
}
330
3B
100
AcDbMaterial
  1
ByLayer
  0
MATERIAL
  5
3E
102
{ACAD_REACTORS
330
3B
102
}
102
{ACAD_XDICTIONARY
360
26E
102
}
330
3B
100
AcDbMaterial
  1
Global
  0
MLINESTYLE
  5
18
102
{ACAD_REACTORS
330
17
102
}
330
17
100
AcDbMlineStyle
  2
Standard
 70
     0
  3

 62
   256
 51
90.0
 52
90.0
 71
     2
 49
0.5
 62
   256
  6
BYLAYER
 49
-0.5
 62
   256
  6
BYLAYER
  0
ACDBPLACEHOLDER
  5
F
102
{ACAD_REACTORS
330
E
102
}
330
E
  0
VISUALSTYLE
  5
2F
102
{ACAD_REACTORS
330
2A
102
}
102
{ACAD_XDICTIONARY
360
252
102
}
330
2A
100
AcDbVisualStyle
  2
2dWireframe
 70
     4
 71
     0
 72
     2
 73
     0
 90
        0
 40
-0.6
 41
-30.0
 62
     5
 63
     7
421
 16777215
 74
     1
 91
        4
 64
     7
 65
   257
 75
     1
175
     1
 42
1.0
 92
        0
 66
   257
 43
1.0
 76
     1
 77
     6
 78
     2
 67
     7
 79
     5
170
     0
171
     0
290
     0
174
     0
 93
        1
 44
0.0
173
     0
291
     0
 45
0.0
1001
ACAD
1000
AcDbSavedByObjectVersion
1070
     0
  0
VISUALSTYLE
  5
31
102
{ACAD_REACTORS
330
2A
102
}
102
{ACAD_XDICTIONARY
360
256
102
}
330
2A
100
AcDbVisualStyle
  2
3D Hidden
 70
     6
 71
     1
 72
     2
 73
     2
 90
        0
 40
-0.6
 41
-30.0
 62
     5
 63
     7
421
 16777215
 74
     2
 91
        2
 64
     7
 65
   257
 75
     2
175
     1
 42
40.0
 92
        0
 66
   257
 43
1.0
 76
     1
 77
     6
 78
     2
 67
     7
 79
     3
170
     0
171
     0
290
     0
174
     0
 93
        1
 44
0.0
173
     0
291
     0
 45
0.0
1001
ACAD
1000
AcDbSavedByObjectVersion
1070
     0
  0
VISUALSTYLE
  5
30
102
{ACAD_REACTORS
330
2A
102
}
102
{ACAD_XDICTIONARY
360
254
102
}
330
2A
100
AcDbVisualStyle
  2
3dWireframe
 70
     5
 71
     0
 72
     2
 73
     0
 90
        0
 40
-0.6
 41
-30.0
 62
     5
 63
     7
421
 16777215
 74
     1
 91
        4
 64
     7
 65
   257
 75
     1
175
     1
 42
1.0
 92
        0
 66
   257
 43
1.0
 76
     1
 77
     6
 78
     2
 67
     7
 79
     5
170
     0
171
     0
290
     0
174
     0
 93
        1
 44
0.0
173
     0
291
     0
 45
0.0
1001
ACAD
1000
AcDbSavedByObjectVersion
1070
     0
  0
VISUALSTYLE
  5
32
102
{ACAD_REACTORS
330
2A
102
}
102
{ACAD_XDICTIONARY
360
258
102
}
330
2A
100
AcDbVisualStyle
  2
Basic
 70
     7
 71
     1
 72
     0
 73
     1
 90
        0
 40
-0.6
 41
-30.0
 62
     5
 63
     7
421
 16777215
 74
     0
 91
        4
 64
     7
 65
   257
 75
     1
175
     1
 42
1.0
 92
        8
 66
     7
 43
1.0
 76
     1
 77
     6
 78
     2
 67
     7
 79
     5
170
     0
171
     0
290
     0
174
     0
 93
        1
 44
0.0
173
     0
291
     1
 45
0.0
1001
ACAD
1000
AcDbSavedByObjectVersion
1070
     0
  0
VISUALSTYLE
  5
36
102
{ACAD_REACTORS
330
2A
102
}
102
{ACAD_XDICTIONARY
360
260
102
}
330
2A
100
AcDbVisualStyle
  2
Brighten
 70
    12
 71
     2
 72
     2
 73
     0
 90
        0
 40
-0.6
 41
-30.0
 62
     5
 63
     7
421
 16777215
 74
     1
 91
        4
 64
     7
 65
   257
 75
     1
175
     1
 42
1.0
 92
        8
 66
     7
 43
1.0
 76
     1
 77
     6
 78
     2
 67
     7
 79
     5
170
     0
171
     0
290
     0
174
     0
 93
        1
 44
50.0
173
     0
291
     1
 45
0.0
1001
ACAD
1000
AcDbSavedByObjectVersion
1070
     0
  0
VISUALSTYLE
  5
3A
102
{ACAD_REACTORS
330
2A
102
}
102
{ACAD_XDICTIONARY
360
268
102
}
330
2A
100
AcDbVisualStyle
  2
ColorChange
 70
    16
 71
     2
 72
     2
 73
     3
 90
        0
 40
-0.6
 41
-30.0
 62
     5
 63
     8
421
  8421504
 74
     1
 91
        4
 64
     7
 65
   257
 75
     1
175
     1
 42
1.0
 92
        8
 66
     8
424
  8421504
 43
1.0
 76
     1
 77
     6
 78
     2
 67
     7
 79
     5
170
     0
171
     0
290
     0
174
     0
 93
        1
 44
0.0
173
     0
291
     1
 45
0.0
1001
ACAD
1000
AcDbSavedByObjectVersion
1070
     0
  0
VISUALSTYLE
  5
34
102
{ACAD_REACTORS
330
2A
102
}
102
{ACAD_XDICTIONARY
360
25C
102
}
330
2A
100
AcDbVisualStyle
  2
Conceptual
 70
     9
 71
     3
 72
     2
 73
     0
 90
        0
 40
-0.6
 41
-30.0
 62
     5
 63
     7
421
 16777215
 74
     2
 91
        2
 64
     7
 65
   257
 75
     1
175
     1
 42
40.0
 92
        8
 66
     7
 43
1.0
 76
     1
 77
     6
 78
     2
 67
     7
 79
     3
170
     0
171
     0
290
     0
174
     0
 93
        1
 44
0.0
173
     0
291
     0
 45
0.0
1001
ACAD
1000
AcDbSavedByObjectVersion
1070
     0
  0
VISUALSTYLE
  5
35
102
{ACAD_REACTORS
330
2A
102
}
102
{ACAD_XDICTIONARY
360
25E
102
}
330
2A
100
AcDbVisualStyle
  2
Dim
 70
    11
 71
     2
 72
     2
 73
     0
 90
        0
 40
-0.6
 41
-30.0
 62
     5
 63
     7
421
 16777215
 74
     1
 91
        4
 64
     7
 65
   257
 75
     1
175
     1
 42
1.0
 92
        8
 66
     7
 43
1.0
 76
     1
 77
     6
 78
     2
 67
     7
 79
     5
170
     0
171
     0
290
     0
174
     0
 93
        1
 44
-50.0
173
     0
291
     1
 45
0.0
1001
ACAD
1000
AcDbSavedByObjectVersion
1070
     0
  0
VISUALSTYLE
  5
39
102
{ACAD_REACTORS
330
2A
102
}
102
{ACAD_XDICTIONARY
360
266
102
}
330
2A
100
AcDbVisualStyle
  2
Facepattern
 70
    15
 71
     2
 72
     2
 73
     0
 90
        0
 40
-0.6
 41
-30.0
 62
     5
 63
     7
421
 16777215
 74
     1
 91
        4
 64
     7
 65
   257
 75
     1
175
     1
 42
1.0
 92
        8
 66
     7
 43
1.0
 76
     1
 77
     6
 78
     2
 67
     7
 79
     5
170
     0
171
     0
290
     0
174
     0
 93
        1
 44
0.0
173
     0
291
     1
 45
0.0
1001
ACAD
1000
AcDbSavedByObjectVersion
1070
     0
  0
VISUALSTYLE
  5
2B
102
{ACAD_REACTORS
330
2A
102
}
102
{ACAD_XDICTIONARY
360
24A
102
}
330
2A
100
AcDbVisualStyle
  2
Flat
 70
     0
 71
     2
 72
     1
 73
     1
 90
        2
 40
-0.6
 41
30.0
 62
     5
 63
     7
421
 16777215
 74
     0
 91
        4
 64
     7
 65
   257
 75
     1
175
     1
 42
1.0
 92
        8
 66
     7
 43
1.0
 76
     1
 77
     6
 78
     2
 67
     7
 79
     5
170
     0
171
     0
290
     0
174
     0
 93
       13
 44
0.0
173
     0
291
     1
 45
0.0
1001
ACAD
1000
AcDbSavedByObjectVersion
1070
     0
  0
VISUALSTYLE
  5
2C
102
{ACAD_REACTORS
330
2A
102
}
102
{ACAD_XDICTIONARY
360
24C
102
}
330
2A
100
AcDbVisualStyle
  2
FlatWithEdges
 70
     1
 71
     2
 72
     1
 73
     1
 90
        2
 40
-0.6
 41
30.0
 62
     5
 63
     7
421
 16777215
 74
     1
 91
        4
 64
     7
 65
   257
 75
     1
175
     1
 42
1.0
 92
        0
 66
   257
 43
1.0
 76
     1
 77
     6
 78
     2
 67
     7
 79
     5
170
     0
171
     0
290
     0
174
     0
 93
       13
 44
0.0
173
     0
291
     1
 45
0.0
1001
ACAD
1000
AcDbSavedByObjectVersion
1070
     0
  0
VISUALSTYLE
  5
2D
102
{ACAD_REACTORS
330
2A
102
}
102
{ACAD_XDICTIONARY
360
24E
102
}
330
2A
100
AcDbVisualStyle
  2
Gouraud
 70
     2
 71
     2
 72
     2
 73
     1
 90
        2
 40
-0.6
 41
30.0
 62
     5
 63
     7
421
 16777215
 74
     0
 91
        4
 64
     7
 65
   257
 75
     1
175
     1
 42
1.0
 92
        0
 66
     7
 43
1.0
 76
     1
 77
     6
 78
     2
 67
     7
 79
     5
170
     0
171
     0
290
     0
174
     0
 93
       13
 44
0.0
173
     0
291
     1
 45
0.0
1001
ACAD
1000
AcDbSavedByObjectVersion
1070
     0
  0
VISUALSTYLE
  5
2E
102
{ACAD_REACTORS
330
2A
102
}
102
{ACAD_XDICTIONARY
360
250
102
}
330
2A
100
AcDbVisualStyle
  2
GouraudWithEdges
 70
     3
 71
     2
 72
     2
 73
     1
 90
        2
 40
-0.6
 41
30.0
 62
     5
 63
     7
421
 16777215
 74
     1
 91
        4
 64
     7
 65
   257
 75
     1
175
     1
 42
1.0
 92
        0
 66
   257
 43
1.0
 76
     1
 77
     6
 78
     2
 67
     7
 79
     5
170
     0
171
     0
290
     0
174
     0
 93
       13
 44
0.0
173
     0
291
     1
 45
0.0
1001
ACAD
1000
AcDbSavedByObjectVersion
1070
     0
  0
VISUALSTYLE
  5
38
102
{ACAD_REACTORS
330
2A
102
}
102
{ACAD_XDICTIONARY
360
264
102
}
330
2A
100
AcDbVisualStyle
  2
Linepattern
 70
    14
 71
     2
 72
     2
 73
     0
 90
        0
 40
-0.6
 41
-30.0
 62
     5
 63
     7
421
 16777215
 74
     1
 91
        4
 64
     7
 65
   257
 75
     7
175
     7
 42
1.0
 92
        8
 66
     7
 43
1.0
 76
     1
 77
     6
 78
     2
 67
     7
 79
     5
170
     0
171
     0
290
     0
174
     0
 93
        1
 44
0.0
173
     0
291
     1
 45
0.0
1001
ACAD
1000
AcDbSavedByObjectVersion
1070
     0
  0
VISUALSTYLE
  5
33
102
{ACAD_REACTORS
330
2A
102
}
102
{ACAD_XDICTIONARY
360
25A
102
}
330
2A
100
AcDbVisualStyle
  2
Realistic
 70
     8
 71
     2
 72
     2
 73
     0
 90
        0
 40
-0.6
 41
-30.0
 62
     5
 63
     7
421
 16777215
 74
     1
 91
        0
 64
     7
 65
   257
 75
     1
175
     1
 42
1.0
 92
        8
 66
     8
424
  7895160
 43
1.0
 76
     1
 77
     6
 78
     2
 67
     7
 79
     5
170
     0
171
     0
290
     0
174
     0
 93
       13
 44
0.0
173
     0
291
     0
 45
0.0
1001
ACAD
1000
AcDbSavedByObjectVersion
1070
     0
  0
VISUALSTYLE
  5
37
102
{ACAD_REACTORS
330
2A
102
}
102
{ACAD_XDICTIONARY
360
262
102
}
330
2A
100
AcDbVisualStyle
  2
Thicken
 70
    13
 71
     2
 72
     2
 73
     0
 90
        0
 40
-0.6
 41
-30.0
 62
     5
 63
     7
421
 16777215
 74
     1
 91
        4
 64
     7
 65
   257
 75
     1
175
     1
 42
1.0
 92
       12
 66
     7
 43
1.0
 76
     1
 77
     6
 78
     2
 67
     7
 79
     5
170
     0
171
     0
290
     0
174
     0
 93
        1
 44
0.0
173
     0
291
     1
 45
0.0
1001
ACAD
1000
AcDbSavedByObjectVersion
1070
     0
  0
DICTIONARY
  5
26C
330
3D
100
AcDbDictionary
280
     1
281
     1
  3
ACAD_XREC_ROUNDTRIP
360
26D
  0
DICTIONARY
  5
26A
330
3C
100
AcDbDictionary
280
     1
281
     1
  3
ACAD_XREC_ROUNDTRIP
360
26B
  0
DICTIONARY
  5
26E
330
3E
100
AcDbDictionary
280
     1
281
     1
  3
ACAD_XREC_ROUNDTRIP
360
26F
  0
DICTIONARY
  5
252
330
2F
100
AcDbDictionary
280
     1
281
     1
  3
ACAD_XREC_ROUNDTRIP
360
253
  0
DICTIONARY
  5
256
330
31
100
AcDbDictionary
280
     1
281
     1
  3
ACAD_XREC_ROUNDTRIP
360
257
  0
DICTIONARY
  5
254
330
30
100
AcDbDictionary
280
     1
281
     1
  3
ACAD_XREC_ROUNDTRIP
360
255
  0
DICTIONARY
  5
258
330
32
100
AcDbDictionary
280
     1
281
     1
  3
ACAD_XREC_ROUNDTRIP
360
259
  0
DICTIONARY
  5
260
330
36
100
AcDbDictionary
280
     1
281
     1
  3
ACAD_XREC_ROUNDTRIP
360
261
  0
DICTIONARY
  5
268
330
3A
100
AcDbDictionary
280
     1
281
     1
  3
ACAD_XREC_ROUNDTRIP
360
269
  0
DICTIONARY
  5
25C
330
34
100
AcDbDictionary
280
     1
281
     1
  3
ACAD_XREC_ROUNDTRIP
360
25D
  0
DICTIONARY
  5
25E
330
35
100
AcDbDictionary
280
     1
281
     1
  3
ACAD_XREC_ROUNDTRIP
360
25F
  0
DICTIONARY
  5
266
330
39
100
AcDbDictionary
280
     1
281
     1
  3
ACAD_XREC_ROUNDTRIP
360
267
  0
DICTIONARY
  5
24A
330
2B
100
AcDbDictionary
280
     1
281
     1
  3
ACAD_XREC_ROUNDTRIP
360
24B
  0
DICTIONARY
  5
24C
330
2C
100
AcDbDictionary
280
     1
281
     1
  3
ACAD_XREC_ROUNDTRIP
360
24D
  0
DICTIONARY
  5
24E
330
2D
100
AcDbDictionary
280
     1
281
     1
  3
ACAD_XREC_ROUNDTRIP
360
24F
  0
DICTIONARY
  5
250
330
2E
100
AcDbDictionary
280
     1
281
     1
  3
ACAD_XREC_ROUNDTRIP
360
251
  0
DICTIONARY
  5
264
330
38
100
AcDbDictionary
280
     1
281
     1
  3
ACAD_XREC_ROUNDTRIP
360
265
  0
DICTIONARY
  5
25A
330
33
100
AcDbDictionary
280
     1
281
     1
  3
ACAD_XREC_ROUNDTRIP
360
25B
  0
DICTIONARY
  5
262
330
37
100
AcDbDictionary
280
     1
281
     1
  3
ACAD_XREC_ROUNDTRIP
360
263
  0
XRECORD
  5
26D
102
{ACAD_REACTORS
330
26C
102
}
330
26C
100
AcDbXrecord
280
     1
102
MATERIAL
148
0.0
149
0.0
149
0.0
 93
        0
 94
      127
282
     0
 72
     1
 77
     1
171
     1
175
     1
179
     1
273
     0
  0
XRECORD
  5
26B
102
{ACAD_REACTORS
330
26A
102
}
330
26A
100
AcDbXrecord
280
     1
102
MATERIAL
148
0.0
149
0.0
149
0.0
 93
        0
 94
      127
282
     0
 72
     1
 77
     1
171
     1
175
     1
179
     1
273
     0
  0
XRECORD
  5
26F
102
{ACAD_REACTORS
330
26E
102
}
330
26E
100
AcDbXrecord
280
     1
102
MATERIAL
148
0.0
149
0.0
149
0.0
 93
        0
 94
      127
282
     0
 72
     1
 77
     1
171
     1
175
     1
179
     1
273
     0
  0
XRECORD
  5
253
102
{ACAD_REACTORS
330
252
102
}
330
252
100
AcDbXrecord
280
     1
102
RTVSPropertyOp0
 70
     1
102
RTVSPropertyOp1
 70
     1
102
RTVSPropertyOp2
 70
     1
102
RTVSPropertyOp3
 70
     1
102
RTVSPropertyOp4
 70
     1
102
RTVSPropertyOp5
 70
     1
102
RTVSPropertyOp6
 70
     1
102
RTVSPropertyOp7
 70
     1
102
RTVSPropertyOp8
 70
     1
102
RTVSPropertyOp9
 70
     1
102
RTVSPropertyOp10
 70
     1
102
RTVSPropertyOp11
 70
     1
102
RTVSPropertyOp12
 70
     1
102
RTVSPropertyOp13
 70
     1
102
RTVSPropertyOp14
 70
     1
102
RTVSPropertyOp15
 70
     1
102
RTVSPropertyOp16
 70
     1
102
RTVSPropertyOp17
 70
     1
102
RTVSPropertyOp18
 70
     1
102
RTVSPropertyOp19
 70
     1
102
RTVSPropertyOp20
 70
     1
102
RTVSPropertyOp21
 70
     1
102
RTVSPropertyOp22
 70
     1
102
RTVSPropertyOp23
 70
     1
102
RTVSPropertyOp24
 70
     1
102
RTVSPropertyOp25
 70
     1
102
RTVSPropertyOp26
 70
     1
102
RTVSPropertyOp27
 70
     1
102
RTVSPropertyOp28
 70
     1
102
RTVSPropertyOp29
 70
     1
102
RTVSPropertyOp30
 70
     1
102
RTVSPropertyOp31
 70
     1
102
RTVSPropertyOp32
 70
     1
  0
XRECORD
  5
257
102
{ACAD_REACTORS
330
256
102
}
330
256
100
AcDbXrecord
280
     1
102
RTVSPropertyOp0
 70
     1
102
RTVSPropertyOp1
 70
     1
102
RTVSPropertyOp2
 70
     1
102
RTVSPropertyOp3
 70
     1
102
RTVSPropertyOp4
 70
     1
102
RTVSPropertyOp5
 70
     1
102
RTVSPropertyOp6
 70
     1
102
RTVSPropertyOp7
 70
     1
102
RTVSPropertyOp8
 70
     1
102
RTVSPropertyOp9
 70
     1
102
RTVSPropertyOp10
 70
     1
102
RTVSPropertyOp11
 70
     1
102
RTVSPropertyOp12
 70
     1
102
RTVSPropertyOp13
 70
     1
102
RTVSPropertyOp14
 70
     1
102
RTVSPropertyOp15
 70
     1
102
RTVSPropertyOp16
 70
     1
102
RTVSPropertyOp17
 70
     1
102
RTVSPropertyOp18
 70
     1
102
RTVSPropertyOp19
 70
     1
102
RTVSPropertyOp20
 70
     1
102
RTVSPropertyOp21
 70
     1
102
RTVSPropertyOp22
 70
     1
102
RTVSPropertyOp23
 70
     1
102
RTVSPropertyOp24
 70
     1
102
RTVSPropertyOp25
 70
     1
102
RTVSPropertyOp26
 70
     1
102
RTVSPropertyOp27
 70
     1
102
RTVSPropertyOp28
 70
     1
102
RTVSPropertyOp29
 70
     1
102
RTVSPropertyOp30
 70
     1
102
RTVSPropertyOp31
 70
     1
102
RTVSPropertyOp32
 70
     1
  0
XRECORD
  5
255
102
{ACAD_REACTORS
330
254
102
}
330
254
100
AcDbXrecord
280
     1
102
RTVSPropertyOp0
 70
     1
102
RTVSPropertyOp1
 70
     1
102
RTVSPropertyOp2
 70
     1
102
RTVSPropertyOp3
 70
     1
102
RTVSPropertyOp4
 70
     1
102
RTVSPropertyOp5
 70
     1
102
RTVSPropertyOp6
 70
     1
102
RTVSPropertyOp7
 70
     1
102
RTVSPropertyOp8
 70
     1
102
RTVSPropertyOp9
 70
     1
102
RTVSPropertyOp10
 70
     1
102
RTVSPropertyOp11
 70
     1
102
RTVSPropertyOp12
 70
     1
102
RTVSPropertyOp13
 70
     1
102
RTVSPropertyOp14
 70
     1
102
RTVSPropertyOp15
 70
     1
102
RTVSPropertyOp16
 70
     1
102
RTVSPropertyOp17
 70
     1
102
RTVSPropertyOp18
 70
     1
102
RTVSPropertyOp19
 70
     1
102
RTVSPropertyOp20
 70
     1
102
RTVSPropertyOp21
 70
     1
102
RTVSPropertyOp22
 70
     1
102
RTVSPropertyOp23
 70
     1
102
RTVSPropertyOp24
 70
     1
102
RTVSPropertyOp25
 70
     1
102
RTVSPropertyOp26
 70
     1
102
RTVSPropertyOp27
 70
     1
102
RTVSPropertyOp28
 70
     1
102
RTVSPropertyOp29
 70
     1
102
RTVSPropertyOp30
 70
     1
102
RTVSPropertyOp31
 70
     1
102
RTVSPropertyOp32
 70
     1
  0
XRECORD
  5
259
102
{ACAD_REACTORS
330
258
102
}
330
258
100
AcDbXrecord
280
     1
102
RTVSPropertyOp0
 70
     1
102
RTVSPropertyOp1
 70
     1
102
RTVSPropertyOp2
 70
     1
102
RTVSPropertyOp3
 70
     1
102
RTVSPropertyOp4
 70
     1
102
RTVSPropertyOp5
 70
     1
102
RTVSPropertyOp6
 70
     1
102
RTVSPropertyOp7
 70
     1
102
RTVSPropertyOp8
 70
     1
102
RTVSPropertyOp9
 70
     1
102
RTVSPropertyOp10
 70
     1
102
RTVSPropertyOp11
 70
     1
102
RTVSPropertyOp12
 70
     1
102
RTVSPropertyOp13
 70
     1
102
RTVSPropertyOp14
 70
     1
102
RTVSPropertyOp15
 70
     1
102
RTVSPropertyOp16
 70
     1
102
RTVSPropertyOp17
 70
     1
102
RTVSPropertyOp18
 70
     1
102
RTVSPropertyOp19
 70
     1
102
RTVSPropertyOp20
 70
     1
102
RTVSPropertyOp21
 70
     1
102
RTVSPropertyOp22
 70
     1
102
RTVSPropertyOp23
 70
     1
102
RTVSPropertyOp24
 70
     1
102
RTVSPropertyOp25
 70
     1
102
RTVSPropertyOp26
 70
     1
102
RTVSPropertyOp27
 70
     1
102
RTVSPropertyOp28
 70
     1
102
RTVSPropertyOp29
 70
     1
102
RTVSPropertyOp30
 70
     1
102
RTVSPropertyOp31
 70
     1
102
RTVSPropertyOp32
 70
     1
  0
XRECORD
  5
261
102
{ACAD_REACTORS
330
260
102
}
330
260
100
AcDbXrecord
280
     1
102
RTVSPropertyOp0
 70
     1
102
RTVSPropertyOp1
 70
     1
102
RTVSPropertyOp2
 70
     1
102
RTVSPropertyOp3
 70
     1
102
RTVSPropertyOp4
 70
     1
102
RTVSPropertyOp5
 70
     1
102
RTVSPropertyOp6
 70
     1
102
RTVSPropertyOp7
 70
     1
102
RTVSPropertyOp8
 70
     1
102
RTVSPropertyOp9
 70
     1
102
RTVSPropertyOp10
 70
     1
102
RTVSPropertyOp11
 70
     1
102
RTVSPropertyOp12
 70
     1
102
RTVSPropertyOp13
 70
     1
102
RTVSPropertyOp14
 70
     1
102
RTVSPropertyOp15
 70
     1
102
RTVSPropertyOp16
 70
     1
102
RTVSPropertyOp17
 70
     1
102
RTVSPropertyOp18
 70
     1
102
RTVSPropertyOp19
 70
     1
102
RTVSPropertyOp20
 70
     1
102
RTVSPropertyOp21
 70
     1
102
RTVSPropertyOp22
 70
     1
102
RTVSPropertyOp23
 70
     1
102
RTVSPropertyOp24
 70
     1
102
RTVSPropertyOp25
 70
     1
102
RTVSPropertyOp26
 70
     1
102
RTVSPropertyOp27
 70
     1
102
RTVSPropertyOp28
 70
     1
102
RTVSPropertyOp29
 70
     1
102
RTVSPropertyOp30
 70
     1
102
RTVSPropertyOp31
 70
     1
102
RTVSPropertyOp32
 70
     1
  0
XRECORD
  5
269
102
{ACAD_REACTORS
330
268
102
}
330
268
100
AcDbXrecord
280
     1
102
RTVSPropertyOp0
 70
     1
102
RTVSPropertyOp1
 70
     1
102
RTVSPropertyOp2
 70
     1
102
RTVSPropertyOp3
 70
     1
102
RTVSPropertyOp4
 70
     1
102
RTVSPropertyOp5
 70
     1
102
RTVSPropertyOp6
 70
     1
102
RTVSPropertyOp7
 70
     1
102
RTVSPropertyOp8
 70
     1
102
RTVSPropertyOp9
 70
     1
102
RTVSPropertyOp10
 70
     1
102
RTVSPropertyOp11
 70
     1
102
RTVSPropertyOp12
 70
     1
102
RTVSPropertyOp13
 70
     1
102
RTVSPropertyOp14
 70
     1
102
RTVSPropertyOp15
 70
     1
102
RTVSPropertyOp16
 70
     1
102
RTVSPropertyOp17
 70
     1
102
RTVSPropertyOp18
 70
     1
102
RTVSPropertyOp19
 70
     1
102
RTVSPropertyOp20
 70
     1
102
RTVSPropertyOp21
 70
     1
102
RTVSPropertyOp22
 70
     1
102
RTVSPropertyOp23
 70
     1
102
RTVSPropertyOp24
 70
     1
102
RTVSPropertyOp25
 70
     1
102
RTVSPropertyOp26
 70
     1
102
RTVSPropertyOp27
 70
     1
102
RTVSPropertyOp28
 70
     1
102
RTVSPropertyOp29
 70
     1
102
RTVSPropertyOp30
 70
     1
102
RTVSPropertyOp31
 70
     1
102
RTVSPropertyOp32
 70
     1
  0
XRECORD
  5
25D
102
{ACAD_REACTORS
330
25C
102
}
330
25C
100
AcDbXrecord
280
     1
102
RTVSPropertyOp0
 70
     1
102
RTVSPropertyOp1
 70
     1
102
RTVSPropertyOp2
 70
     1
102
RTVSPropertyOp3
 70
     1
102
RTVSPropertyOp4
 70
     1
102
RTVSPropertyOp5
 70
     1
102
RTVSPropertyOp6
 70
     1
102
RTVSPropertyOp7
 70
     1
102
RTVSPropertyOp8
 70
     1
102
RTVSPropertyOp9
 70
     1
102
RTVSPropertyOp10
 70
     1
102
RTVSPropertyOp11
 70
     1
102
RTVSPropertyOp12
 70
     1
102
RTVSPropertyOp13
 70
     1
102
RTVSPropertyOp14
 70
     1
102
RTVSPropertyOp15
 70
     1
102
RTVSPropertyOp16
 70
     1
102
RTVSPropertyOp17
 70
     1
102
RTVSPropertyOp18
 70
     1
102
RTVSPropertyOp19
 70
     1
102
RTVSPropertyOp20
 70
     1
102
RTVSPropertyOp21
 70
     1
102
RTVSPropertyOp22
 70
     1
102
RTVSPropertyOp23
 70
     1
102
RTVSPropertyOp24
 70
     1
102
RTVSPropertyOp25
 70
     1
102
RTVSPropertyOp26
 70
     1
102
RTVSPropertyOp27
 70
     1
102
RTVSPropertyOp28
 70
     1
102
RTVSPropertyOp29
 70
     1
102
RTVSPropertyOp30
 70
     1
102
RTVSPropertyOp31
 70
     1
102
RTVSPropertyOp32
 70
     1
  0
XRECORD
  5
25F
102
{ACAD_REACTORS
330
25E
102
}
330
25E
100
AcDbXrecord
280
     1
102
RTVSPropertyOp0
 70
     1
102
RTVSPropertyOp1
 70
     1
102
RTVSPropertyOp2
 70
     1
102
RTVSPropertyOp3
 70
     1
102
RTVSPropertyOp4
 70
     1
102
RTVSPropertyOp5
 70
     1
102
RTVSPropertyOp6
 70
     1
102
RTVSPropertyOp7
 70
     1
102
RTVSPropertyOp8
 70
     1
102
RTVSPropertyOp9
 70
     1
102
RTVSPropertyOp10
 70
     1
102
RTVSPropertyOp11
 70
     1
102
RTVSPropertyOp12
 70
     1
102
RTVSPropertyOp13
 70
     1
102
RTVSPropertyOp14
 70
     1
102
RTVSPropertyOp15
 70
     1
102
RTVSPropertyOp16
 70
     1
102
RTVSPropertyOp17
 70
     1
102
RTVSPropertyOp18
 70
     1
102
RTVSPropertyOp19
 70
     1
102
RTVSPropertyOp20
 70
     1
102
RTVSPropertyOp21
 70
     1
102
RTVSPropertyOp22
 70
     1
102
RTVSPropertyOp23
 70
     1
102
RTVSPropertyOp24
 70
     1
102
RTVSPropertyOp25
 70
     1
102
RTVSPropertyOp26
 70
     1
102
RTVSPropertyOp27
 70
     1
102
RTVSPropertyOp28
 70
     1
102
RTVSPropertyOp29
 70
     1
102
RTVSPropertyOp30
 70
     1
102
RTVSPropertyOp31
 70
     1
102
RTVSPropertyOp32
 70
     1
  0
XRECORD
  5
267
102
{ACAD_REACTORS
330
266
102
}
330
266
100
AcDbXrecord
280
     1
102
RTVSPropertyOp0
 70
     1
102
RTVSPropertyOp1
 70
     1
102
RTVSPropertyOp2
 70
     1
102
RTVSPropertyOp3
 70
     1
102
RTVSPropertyOp4
 70
     1
102
RTVSPropertyOp5
 70
     1
102
RTVSPropertyOp6
 70
     1
102
RTVSPropertyOp7
 70
     1
102
RTVSPropertyOp8
 70
     1
102
RTVSPropertyOp9
 70
     1
102
RTVSPropertyOp10
 70
     1
102
RTVSPropertyOp11
 70
     1
102
RTVSPropertyOp12
 70
     1
102
RTVSPropertyOp13
 70
     1
102
RTVSPropertyOp14
 70
     1
102
RTVSPropertyOp15
 70
     1
102
RTVSPropertyOp16
 70
     1
102
RTVSPropertyOp17
 70
     1
102
RTVSPropertyOp18
 70
     1
102
RTVSPropertyOp19
 70
     1
102
RTVSPropertyOp20
 70
     1
102
RTVSPropertyOp21
 70
     1
102
RTVSPropertyOp22
 70
     1
102
RTVSPropertyOp23
 70
     1
102
RTVSPropertyOp24
 70
     1
102
RTVSPropertyOp25
 70
     1
102
RTVSPropertyOp26
 70
     1
102
RTVSPropertyOp27
 70
     1
102
RTVSPropertyOp28
 70
     1
102
RTVSPropertyOp29
 70
     1
102
RTVSPropertyOp30
 70
     1
102
RTVSPropertyOp31
 70
     1
102
RTVSPropertyOp32
 70
     1
  0
XRECORD
  5
24B
102
{ACAD_REACTORS
330
24A
102
}
330
24A
100
AcDbXrecord
280
     1
102
RTVSPropertyOp0
 70
     1
102
RTVSPropertyOp1
 70
     1
102
RTVSPropertyOp2
 70
     1
102
RTVSPropertyOp3
 70
     1
102
RTVSPropertyOp4
 70
     1
102
RTVSPropertyOp5
 70
     1
102
RTVSPropertyOp6
 70
     1
102
RTVSPropertyOp7
 70
     1
102
RTVSPropertyOp8
 70
     1
102
RTVSPropertyOp9
 70
     1
102
RTVSPropertyOp10
 70
     1
102
RTVSPropertyOp11
 70
     1
102
RTVSPropertyOp12
 70
     1
102
RTVSPropertyOp13
 70
     1
102
RTVSPropertyOp14
 70
     1
102
RTVSPropertyOp15
 70
     1
102
RTVSPropertyOp16
 70
     1
102
RTVSPropertyOp17
 70
     1
102
RTVSPropertyOp18
 70
     1
102
RTVSPropertyOp19
 70
     1
102
RTVSPropertyOp20
 70
     1
102
RTVSPropertyOp21
 70
     1
102
RTVSPropertyOp22
 70
     1
102
RTVSPropertyOp23
 70
     1
102
RTVSPropertyOp24
 70
     1
102
RTVSPropertyOp25
 70
     1
102
RTVSPropertyOp26
 70
     1
102
RTVSPropertyOp27
 70
     1
102
RTVSPropertyOp28
 70
     1
102
RTVSPropertyOp29
 70
     1
102
RTVSPropertyOp30
 70
     1
102
RTVSPropertyOp31
 70
     1
102
RTVSPropertyOp32
 70
     1
  0
XRECORD
  5
24D
102
{ACAD_REACTORS
330
24C
102
}
330
24C
100
AcDbXrecord
280
     1
102
RTVSPropertyOp0
 70
     1
102
RTVSPropertyOp1
 70
     1
102
RTVSPropertyOp2
 70
     1
102
RTVSPropertyOp3
 70
     1
102
RTVSPropertyOp4
 70
     1
102
RTVSPropertyOp5
 70
     1
102
RTVSPropertyOp6
 70
     1
102
RTVSPropertyOp7
 70
     1
102
RTVSPropertyOp8
 70
     1
102
RTVSPropertyOp9
 70
     1
102
RTVSPropertyOp10
 70
     1
102
RTVSPropertyOp11
 70
     1
102
RTVSPropertyOp12
 70
     1
102
RTVSPropertyOp13
 70
     1
102
RTVSPropertyOp14
 70
     1
102
RTVSPropertyOp15
 70
     1
102
RTVSPropertyOp16
 70
     1
102
RTVSPropertyOp17
 70
     1
102
RTVSPropertyOp18
 70
     1
102
RTVSPropertyOp19
 70
     1
102
RTVSPropertyOp20
 70
     1
102
RTVSPropertyOp21
 70
     1
102
RTVSPropertyOp22
 70
     1
102
RTVSPropertyOp23
 70
     1
102
RTVSPropertyOp24
 70
     1
102
RTVSPropertyOp25
 70
     1
102
RTVSPropertyOp26
 70
     1
102
RTVSPropertyOp27
 70
     1
102
RTVSPropertyOp28
 70
     1
102
RTVSPropertyOp29
 70
     1
102
RTVSPropertyOp30
 70
     1
102
RTVSPropertyOp31
 70
     1
102
RTVSPropertyOp32
 70
     1
  0
XRECORD
  5
24F
102
{ACAD_REACTORS
330
24E
102
}
330
24E
100
AcDbXrecord
280
     1
102
RTVSPropertyOp0
 70
     1
102
RTVSPropertyOp1
 70
     1
102
RTVSPropertyOp2
 70
     1
102
RTVSPropertyOp3
 70
     1
102
RTVSPropertyOp4
 70
     1
102
RTVSPropertyOp5
 70
     1
102
RTVSPropertyOp6
 70
     1
102
RTVSPropertyOp7
 70
     1
102
RTVSPropertyOp8
 70
     1
102
RTVSPropertyOp9
 70
     1
102
RTVSPropertyOp10
 70
     1
102
RTVSPropertyOp11
 70
     1
102
RTVSPropertyOp12
 70
     1
102
RTVSPropertyOp13
 70
     1
102
RTVSPropertyOp14
 70
     1
102
RTVSPropertyOp15
 70
     1
102
RTVSPropertyOp16
 70
     1
102
RTVSPropertyOp17
 70
     1
102
RTVSPropertyOp18
 70
     1
102
RTVSPropertyOp19
 70
     1
102
RTVSPropertyOp20
 70
     1
102
RTVSPropertyOp21
 70
     1
102
RTVSPropertyOp22
 70
     1
102
RTVSPropertyOp23
 70
     1
102
RTVSPropertyOp24
 70
     1
102
RTVSPropertyOp25
 70
     1
102
RTVSPropertyOp26
 70
     1
102
RTVSPropertyOp27
 70
     1
102
RTVSPropertyOp28
 70
     1
102
RTVSPropertyOp29
 70
     1
102
RTVSPropertyOp30
 70
     1
102
RTVSPropertyOp31
 70
     1
102
RTVSPropertyOp32
 70
     1
  0
XRECORD
  5
251
102
{ACAD_REACTORS
330
250
102
}
330
250
100
AcDbXrecord
280
     1
102
RTVSPropertyOp0
 70
     1
102
RTVSPropertyOp1
 70
     1
102
RTVSPropertyOp2
 70
     1
102
RTVSPropertyOp3
 70
     1
102
RTVSPropertyOp4
 70
     1
102
RTVSPropertyOp5
 70
     1
102
RTVSPropertyOp6
 70
     1
102
RTVSPropertyOp7
 70
     1
102
RTVSPropertyOp8
 70
     1
102
RTVSPropertyOp9
 70
     1
102
RTVSPropertyOp10
 70
     1
102
RTVSPropertyOp11
 70
     1
102
RTVSPropertyOp12
 70
     1
102
RTVSPropertyOp13
 70
     1
102
RTVSPropertyOp14
 70
     1
102
RTVSPropertyOp15
 70
     1
102
RTVSPropertyOp16
 70
     1
102
RTVSPropertyOp17
 70
     1
102
RTVSPropertyOp18
 70
     1
102
RTVSPropertyOp19
 70
     1
102
RTVSPropertyOp20
 70
     1
102
RTVSPropertyOp21
 70
     1
102
RTVSPropertyOp22
 70
     1
102
RTVSPropertyOp23
 70
     1
102
RTVSPropertyOp24
 70
     1
102
RTVSPropertyOp25
 70
     1
102
RTVSPropertyOp26
 70
     1
102
RTVSPropertyOp27
 70
     1
102
RTVSPropertyOp28
 70
     1
102
RTVSPropertyOp29
 70
     1
102
RTVSPropertyOp30
 70
     1
102
RTVSPropertyOp31
 70
     1
102
RTVSPropertyOp32
 70
     1
  0
XRECORD
  5
265
102
{ACAD_REACTORS
330
264
102
}
330
264
100
AcDbXrecord
280
     1
102
RTVSPropertyOp0
 70
     1
102
RTVSPropertyOp1
 70
     1
102
RTVSPropertyOp2
 70
     1
102
RTVSPropertyOp3
 70
     1
102
RTVSPropertyOp4
 70
     1
102
RTVSPropertyOp5
 70
     1
102
RTVSPropertyOp6
 70
     1
102
RTVSPropertyOp7
 70
     1
102
RTVSPropertyOp8
 70
     1
102
RTVSPropertyOp9
 70
     1
102
RTVSPropertyOp10
 70
     1
102
RTVSPropertyOp11
 70
     1
102
RTVSPropertyOp12
 70
     1
102
RTVSPropertyOp13
 70
     1
102
RTVSPropertyOp14
 70
     1
102
RTVSPropertyOp15
 70
     1
102
RTVSPropertyOp16
 70
     1
102
RTVSPropertyOp17
 70
     1
102
RTVSPropertyOp18
 70
     1
102
RTVSPropertyOp19
 70
     1
102
RTVSPropertyOp20
 70
     1
102
RTVSPropertyOp21
 70
     1
102
RTVSPropertyOp22
 70
     1
102
RTVSPropertyOp23
 70
     1
102
RTVSPropertyOp24
 70
     1
102
RTVSPropertyOp25
 70
     1
102
RTVSPropertyOp26
 70
     1
102
RTVSPropertyOp27
 70
     1
102
RTVSPropertyOp28
 70
     1
102
RTVSPropertyOp29
 70
     1
102
RTVSPropertyOp30
 70
     1
102
RTVSPropertyOp31
 70
     1
102
RTVSPropertyOp32
 70
     1
  0
XRECORD
  5
25B
102
{ACAD_REACTORS
330
25A
102
}
330
25A
100
AcDbXrecord
280
     1
102
RTVSPropertyOp0
 70
     1
102
RTVSPropertyOp1
 70
     1
102
RTVSPropertyOp2
 70
     1
102
RTVSPropertyOp3
 70
     1
102
RTVSPropertyOp4
 70
     1
102
RTVSPropertyOp5
 70
     1
102
RTVSPropertyOp6
 70
     1
102
RTVSPropertyOp7
 70
     1
102
RTVSPropertyOp8
 70
     1
102
RTVSPropertyOp9
 70
     1
102
RTVSPropertyOp10
 70
     1
102
RTVSPropertyOp11
 70
     1
102
RTVSPropertyOp12
 70
     1
102
RTVSPropertyOp13
 70
     1
102
RTVSPropertyOp14
 70
     1
102
RTVSPropertyOp15
 70
     1
102
RTVSPropertyOp16
 70
     1
102
RTVSPropertyOp17
 70
     1
102
RTVSPropertyOp18
 70
     1
102
RTVSPropertyOp19
 70
     1
102
RTVSPropertyOp20
 70
     1
102
RTVSPropertyOp21
 70
     1
102
RTVSPropertyOp22
 70
     1
102
RTVSPropertyOp23
 70
     1
102
RTVSPropertyOp24
 70
     1
102
RTVSPropertyOp25
 70
     1
102
RTVSPropertyOp26
 70
     1
102
RTVSPropertyOp27
 70
     1
102
RTVSPropertyOp28
 70
     1
102
RTVSPropertyOp29
 70
     1
102
RTVSPropertyOp30
 70
     1
102
RTVSPropertyOp31
 70
     1
102
RTVSPropertyOp32
 70
     1
  0
XRECORD
  5
263
102
{ACAD_REACTORS
330
262
102
}
330
262
100
AcDbXrecord
280
     1
102
RTVSPropertyOp0
 70
     1
102
RTVSPropertyOp1
 70
     1
102
RTVSPropertyOp2
 70
     1
102
RTVSPropertyOp3
 70
     1
102
RTVSPropertyOp4
 70
     1
102
RTVSPropertyOp5
 70
     1
102
RTVSPropertyOp6
 70
     1
102
RTVSPropertyOp7
 70
     1
102
RTVSPropertyOp8
 70
     1
102
RTVSPropertyOp9
 70
     1
102
RTVSPropertyOp10
 70
     1
102
RTVSPropertyOp11
 70
     1
102
RTVSPropertyOp12
 70
     1
102
RTVSPropertyOp13
 70
     1
102
RTVSPropertyOp14
 70
     1
102
RTVSPropertyOp15
 70
     1
102
RTVSPropertyOp16
 70
     1
102
RTVSPropertyOp17
 70
     1
102
RTVSPropertyOp18
 70
     1
102
RTVSPropertyOp19
 70
     1
102
RTVSPropertyOp20
 70
     1
102
RTVSPropertyOp21
 70
     1
102
RTVSPropertyOp22
 70
     1
102
RTVSPropertyOp23
 70
     1
102
RTVSPropertyOp24
 70
     1
102
RTVSPropertyOp25
 70
     1
102
RTVSPropertyOp26
 70
     1
102
RTVSPropertyOp27
 70
     1
102
RTVSPropertyOp28
 70
     1
102
RTVSPropertyOp29
 70
     1
102
RTVSPropertyOp30
 70
     1
102
RTVSPropertyOp31
 70
     1
102
RTVSPropertyOp32
 70
     1
  0
ENDSEC
  0
EOF
